<?xml version="1.0" standalone="no"?>
<!DOCTYPE svg PUBLIC "-//W3C//DTD SVG 1.1//EN" "http://www.w3.org/Graphics/SVG/1.1/DTD/svg11.dtd" >
<svg>
<metadata>
Created by FontForge 20090914 at Fri Jun  7 10:34:05 2013
 By www-data
Copyright (c) 2008 by Process Type Foundry. All rights reserved.
</metadata>
<defs>
<font id="Knowledge-Medium" horiz-adv-x="696" >
  <font-face 
    font-family="Knowledge Medium"
    font-weight="500"
    font-stretch="normal"
    units-per-em="1000"
    panose-1="2 11 6 3 5 0 0 2 0 4"
    ascent="775"
    descent="-225"
    x-height="484"
    cap-height="666"
    bbox="-209 -250.003 1209 950"
    underline-thickness="60"
    underline-position="-40"
    unicode-range="U+0020-U+FB02"
  />
<missing-glyph horiz-adv-x="623" 
d="M79 0h466v666h-466v-666zM108 25v616h408v-616h-408zM233 239l79 81l81 -81l14 14l-80 80l80 80l-14 14l-81 -81l-79 81l-14 -14l80 -80l-80 -80z" />
    <glyph glyph-name="fi" unicode="fi" horiz-adv-x="551" 
d="M302 664c-11.333 4 -23.166 7 -35.499 9s-26.5 3 -42.5 3c-51.333 0 -88.333 -12.333 -111 -37s-34 -62 -34 -112v-43h-57v-97h57v-387h122v387h88v97h-88v41c0 21.333 4.16699 36 12.5 44s21.5 12 39.5 12c8.66699 0 16.167 -0.5 22.5 -1.5s13.166 -2.5 20.499 -4.5z
M350 617c0 -20 6.66699 -37.5 20 -52.5s31.666 -22.5 54.999 -22.5c22.667 0 40.667 7.5 54 22.5s20 32.5 20 52.5c0 21.333 -6.66699 39.166 -20 53.499s-31.333 21.5 -54 21.5c-23.333 0 -41.666 -7.16699 -54.999 -21.5s-20 -32.166 -20 -53.499zM486 0v484h-122v-484
h122z" />
    <glyph glyph-name="fl" unicode="fl" horiz-adv-x="583" 
d="M306 664c-12.667 4 -25.5 6.99902 -38.5 8.99902s-27.5 3 -43.5 3c-51.333 0 -88.333 -12.333 -111 -37s-34 -62 -34 -112v-43h-57v-97h57v-387h122v387h88v97h-88v41c0 21.333 4.33301 36 13 44s21.667 12 39 12c8.66699 0 17 -0.666992 25 -2
s15.333 -2.66602 22 -3.99902zM565 2.99902l-3 91.001c-11.333 -3.33301 -23 -5 -35 -5c-15.333 0 -25.833 3.33301 -31.5 10s-8.5 16.667 -8.5 30v537h-122v-538c0 -42.667 9 -76.167 27 -100.5s49.667 -36.5 95 -36.5c14.667 0 29.167 1.16699 43.5 3.5
s25.833 5.16602 34.5 8.49902z" />
    <glyph glyph-name=".notdef" horiz-adv-x="623" 
d="M79 0h466v666h-466v-666zM108 25v616h408v-616h-408zM233 239l79 81l81 -81l14 14l-80 80l80 80l-14 14l-81 -81l-79 81l-14 -14l80 -80l-80 -80z" />
    <glyph glyph-name="space" unicode=" " horiz-adv-x="220" 
 />
    <glyph glyph-name="exclam" unicode="!" horiz-adv-x="266" 
d="M99 197h68l31 220v249h-129v-249zM59 66c0 -22 6.83301 -39.833 20.5 -53.5s31.5 -20.5 53.5 -20.5s40 6.83301 54 20.5s21 31.5 21 53.5s-7 39.833 -21 53.5s-32 20.5 -54 20.5s-39.833 -6.83301 -53.5 -20.5s-20.5 -31.5 -20.5 -53.5z" />
    <glyph glyph-name="quotedbl" unicode="&#x22;" horiz-adv-x="446" 
d="M281 398h97l11 151v117h-120v-117zM68 398h97l12 151v117h-120v-117z" />
    <glyph glyph-name="numbersign" unicode="#" horiz-adv-x="658" 
d="M94 0h93l41 183h152l-40 -183h93l40 183h93l18 82h-92l32 149h92l18 82h-93l38 170h-93l-38 -170h-152l37 170h-93l-38 -170h-100l-18 -82h101l-33 -149h-99l-18 -82h99zM246 265l32 149h153l-33 -149h-152z" />
    <glyph glyph-name="dollar" unicode="$" horiz-adv-x="533" 
d="M45 47c24 -11.333 50.166 -20.998 78.499 -28.998s56.5 -13.667 84.5 -17v-126h120v129c51.333 9.33301 92 30.166 122 62.499s45 73.5 45 123.5c0 32 -5.5 59 -16.5 81s-25.5 40.5 -43.5 55.5s-38.833 27.5 -62.5 37.5s-48.167 19.333 -73.5 28l-61 21.5
c-17.333 6.33301 -31.5 13 -42.5 20s-19.167 15 -24.5 24s-8 20.167 -8 33.5c0 53.333 36 80 108 80c34.667 0 66.667 -4.16699 96 -12.5s57.333 -18.166 84 -29.499l24 95c-18.667 9.33301 -39.834 17.666 -63.501 24.999s-50.5 12.666 -80.5 15.999v126h-120v-128
c-51.333 -7.33301 -92.166 -25.833 -122.499 -55.5s-45.5 -72.5 -45.5 -128.5c0 -29.333 4.66699 -54.333 14 -75s23 -38.5 41 -53.5s39.833 -27.833 65.5 -38.5s54.5 -21 86.5 -31c22 -7.33301 41 -14.166 57 -20.499s29 -13.333 39 -21s17.333 -16.334 22 -26.001
s7 -21.5 7 -35.5c0 -26.667 -9.66699 -47 -29 -61s-46.666 -21 -81.999 -21c-34 0 -67.5 4.5 -100.5 13.5s-63.5 19.833 -91.5 32.5z" />
    <glyph glyph-name="percent" unicode="%" horiz-adv-x="852" 
d="M200 314c28 0 52.333 4.66699 73 14s37.834 22 51.501 38s24 35 31 57s10.5 46 10.5 72s-3.5 50 -10.5 72s-17.333 41 -31 57s-30.834 28.667 -51.501 38s-45 14 -73 14c-27.333 0 -51.333 -4.66699 -72 -14s-37.834 -22 -51.501 -38s-24 -35 -31 -57
s-10.5 -46 -10.5 -72s3.5 -50 10.5 -72s17.333 -41 31 -57s30.834 -28.667 51.501 -38s44.667 -14 72 -14zM214 0h105l324 666h-105zM200 389c-47.333 0 -71 35.333 -71 106c0 70 23.667 105 71 105c48 0 72 -35 72 -105c0 -70.667 -24 -106 -72 -106zM490 171
c0 -26 3.5 -50 10.5 -72s17.5 -41 31.5 -57s31.333 -28.667 52 -38s44.667 -14 72 -14c28 0 52.333 4.66699 73 14s37.834 22 51.501 38s24 35 31 57s10.5 46 10.5 72s-3.5 50 -10.5 72s-17.333 41 -31 57s-30.834 28.667 -51.501 38s-45 14 -73 14
c-27.333 0 -51.333 -4.66699 -72 -14s-38 -22 -52 -38s-24.5 -35 -31.5 -57s-10.5 -46 -10.5 -72zM585 171c0 70.667 23.667 106 71 106c48 0 72 -35.333 72 -106c0 -70 -24 -105 -72 -105c-47.333 0 -71 35 -71 105z" />
    <glyph glyph-name="ampersand" unicode="&#x26;" horiz-adv-x="640" 
d="M35 162c0 -28 5.16504 -52.668 15.498 -74.001s24.5 -39.333 42.5 -54s39.167 -25.667 63.5 -33s50.5 -11 78.5 -11c38 0 72.833 5.83301 104.5 17.5s60.167 27.834 85.5 48.501l50 -56h139l-116 132c23.333 32 42.5 67 57.5 105s27.167 76.667 36.5 116l-94 23
c-6 -28 -14.333 -56.833 -25 -86.5s-23.667 -57.834 -39 -84.501l-129 148c19.333 16 36.666 31.333 51.999 46s28.333 29.5 39 44.5s18.834 30.333 24.501 46s8.5 32.834 8.5 51.501c0 39.333 -15.167 71.666 -45.5 96.999s-71.166 38 -122.499 38
c-58 0 -103.5 -14.167 -136.5 -42.5s-49.5 -65.5 -49.5 -111.5c0 -16.667 2.66699 -32.667 8 -48s12 -30 20 -44s17 -27.167 27 -39.5l29 -34.5c-17.333 -13.333 -33.5 -26.5 -48.5 -39.5s-28.167 -27 -39.5 -42s-20.166 -31.667 -26.499 -50s-9.5 -39.166 -9.5 -62.499z
M255.998 78.999c-30.667 0 -55.333 8.33301 -74 25s-28 38.334 -28 65.001c0 25.333 6.33301 46.666 19 63.999s29 34.666 49 51.999l145 -164c-14.667 -13.333 -31 -23.666 -49 -30.999s-38.667 -11 -62 -11zM184.999 523.999c0 24 6.83105 41.333 20.498 52
s31.834 16 54.501 16c21.333 0 38 -5.5 50 -16.5s18 -25.5 18 -43.5c0 -21.333 -8 -40.666 -24 -57.999s-35.667 -35 -59 -53c-15.333 15.333 -29.166 31.166 -41.499 47.499s-18.5 34.833 -18.5 55.5z" />
    <glyph glyph-name="quotesingle" unicode="'" horiz-adv-x="234" 
d="M68 398h97l12 151v117h-120v-117z" />
    <glyph glyph-name="parenleft" unicode="(" horiz-adv-x="305" 
d="M197 -160l88 53.999c-18.667 35.333 -35 69.166 -49 101.499s-25.833 64.5 -35.5 96.5s-16.834 64.5 -21.501 97.5s-7 67.833 -7 104.5s2.33301 71.334 7 104.001s11.834 65 21.501 97s21.5 64.333 35.5 97s30.333 66.667 49 102l-88 54
c-25.333 -39.333 -47.166 -77 -65.499 -113s-33.5 -72.167 -45.5 -108.5s-21 -73.5 -27 -111.5s-9 -78.333 -9 -121s3 -83 9 -121s15 -75.167 27 -111.5s27.167 -72.666 45.5 -108.999s40.166 -73.833 65.499 -112.5z" />
    <glyph glyph-name="parenright" unicode=")" horiz-adv-x="305" 
d="M20 -106l87 -53.999c25.333 38.667 47.333 76.167 66 112.5s34 72.666 46 108.999s21 73.5 27 111.5s9 78.333 9 121s-3 83 -9 121s-15 75.167 -27 111.5s-27.333 72.5 -46 108.5s-40.667 73.667 -66 113l-87 -54c18.667 -35.333 35 -69.333 49 -102s25.667 -65 35 -97
s16.5 -64.333 21.5 -97s7.5 -67.334 7.5 -104.001s-2.5 -71.5 -7.5 -104.5s-12.167 -65.5 -21.5 -97.5s-21 -64.167 -35 -96.5s-30.333 -66.166 -49 -101.499z" />
    <glyph glyph-name="asterisk" unicode="*" horiz-adv-x="417" 
d="M162 316h93l-30 145l111 -99l47 80l-141 49l141 48l-47 81l-111 -100l30 146h-93l30 -146l-112 100l-46 -81l140 -48l-140 -49l46 -80l112 99z" />
    <glyph glyph-name="plus" unicode="+" horiz-adv-x="546" 
d="M217 87h112v185h169v102h-169v185h-112v-185h-169v-102h169v-185z" />
    <glyph glyph-name="comma" unicode="," horiz-adv-x="289" 
d="M87 134l-61 -280h96l114 280h-149z" />
    <glyph glyph-name="hyphen" unicode="-" horiz-adv-x="365" 
d="M54 233h258v105h-258v-105z" />
    <glyph glyph-name="period" unicode="." horiz-adv-x="268" 
d="M60 66c0 -22 6.83301 -39.833 20.5 -53.5s31.5 -20.5 53.5 -20.5s39.833 6.83301 53.5 20.5s20.5 31.5 20.5 53.5s-6.83301 39.833 -20.5 53.5s-31.5 20.5 -53.5 20.5s-39.833 -6.83301 -53.5 -20.5s-20.5 -31.5 -20.5 -53.5z" />
    <glyph glyph-name="slash" unicode="/" horiz-adv-x="462" 
d="M40 -100h117l271 776h-118z" />
    <glyph glyph-name="zero" unicode="0" horiz-adv-x="606" 
d="M303 -10c46 0 85.5 8 118.5 24s60.167 39 81.5 69s37.166 66.167 47.499 108.5s15.5 89.5 15.5 141.5s-5.16699 99.167 -15.5 141.5s-26.166 78.5 -47.499 108.5s-48.5 53 -81.5 69s-72.5 24 -118.5 24s-85.5 -8 -118.5 -24s-60.167 -39 -81.5 -69
s-37.166 -66.167 -47.499 -108.5s-15.5 -89.5 -15.5 -141.5s5.16699 -99.167 15.5 -141.5s26.166 -78.5 47.499 -108.5s48.5 -53 81.5 -69s72.5 -24 118.5 -24zM303 87c-27.333 0 -50 5.83301 -68 17.5s-32.5 28.167 -43.5 49.5s-18.667 47.166 -23 77.499
s-6.5 64.166 -6.5 101.499s2.16699 71.166 6.5 101.499s12 56.166 23 77.499s25.5 37.666 43.5 48.999s40.667 17 68 17s50 -5.66699 68 -17s32.5 -27.666 43.5 -48.999s18.667 -47.166 23 -77.499s6.5 -64.166 6.5 -101.499s-2.16699 -71.166 -6.5 -101.499
s-12 -56.166 -23 -77.499s-25.5 -37.833 -43.5 -49.5s-40.667 -17.5 -68 -17.5z" />
    <glyph glyph-name="one" unicode="1" horiz-adv-x="363" 
d="M167 0h122v666h-103l-173 -35l15 -101l139 24v-554z" />
    <glyph glyph-name="two" unicode="2" horiz-adv-x="537" 
d="M35 0l456.001 0.000976562v98h-330v4c0 18 4.5 34.167 13.5 48.5s20.667 27.666 35 39.999s30.166 23.833 47.499 34.5l50 31l71.5 46.5c23.667 15.667 44.667 32.667 63 51s33.166 39 44.499 62s17 49.167 17 78.5c0 61.333 -20.333 107 -61 137s-97 45 -169 45
c-42 0 -79.5 -4.16699 -112.5 -12.5s-65.5 -20.833 -97.5 -37.5l28 -94c21.333 11.333 46.333 21.833 75 31.5s59.334 14.5 92.001 14.5c39.333 0 69.666 -7 90.999 -21s32 -36.333 32 -67c0 -17.333 -3.66699 -32.5 -11 -45.5s-17.666 -25.5 -30.999 -37.5
s-29.5 -23.833 -48.5 -35.5l-62.5 -37.5c-27.333 -16 -52.833 -32 -76.5 -48s-44.167 -34.167 -61.5 -54.5s-30.833 -44.333 -40.5 -72s-14.5 -61.167 -14.5 -100.5v-59z" />
    <glyph glyph-name="three" unicode="3" horiz-adv-x="514" 
d="M29 38c30 -15.333 63.335 -27.1699 100.002 -35.5029s71.667 -12.5 105 -12.5c36 0 68.667 4.33301 98 13s54.666 21.334 75.999 38.001s37.833 36.834 49.5 60.501s17.5 50.5 17.5 80.5c0 41.333 -11.167 75 -33.5 101s-53.166 44.667 -92.499 56
c38 15.333 66.833 37.833 86.5 67.5s29.5 63.834 29.5 102.501c0 51.333 -18.5 92 -55.5 122s-90.5 45 -160.5 45c-37.333 0 -72.5 -4.33301 -105.5 -13s-65.167 -21.334 -96.5 -38.001l30 -89c22.667 12 46.667 22 72 30s52 12 80 12c35.333 0 63.166 -7.5 83.499 -22.5
s30.5 -37.167 30.5 -66.5c0 -68.667 -46.333 -103 -139 -103h-99v-98h102c46 0 81.833 -8.66699 107.5 -26s38.5 -42.333 38.5 -75c0 -31.333 -10.833 -55.666 -32.5 -72.999s-53.834 -26 -96.501 -26c-28 0 -56.167 3.83301 -84.5 11.5s-55.833 17.167 -82.5 28.5z" />
    <glyph glyph-name="four" unicode="4" horiz-adv-x="571" 
d="M28 159h322v-159h118v159h85v96h-85v411h-131l-309 -407v-100zM143 255l207 280v-280h-207z" />
    <glyph glyph-name="five" unicode="5" horiz-adv-x="560" 
d="M50 46c14.667 -8.66699 31.3301 -16.332 49.9971 -22.999s37.667 -12.5 57 -17.5s38.5 -8.83301 57.5 -11.5s36.833 -4 53.5 -4c40 0 75.833 5.66699 107.5 17s58.5 27 80.5 47s38.833 43.5 50.5 70.5s17.5 56.167 17.5 87.5c0 32 -4.83301 61.167 -14.5 87.5
s-23.5 48.666 -41.5 66.999s-40 32.666 -66 42.999s-55.333 15.5 -88 15.5c-23.333 0 -45.666 -2.66699 -66.999 -8s-39.666 -12.666 -54.999 -21.999v173h293v98h-414v-348l99 -32c13.333 10 29 19.167 47 27.5s39.667 12.5 65 12.5c38.667 0 68.334 -10.167 89.001 -30.5
s31 -49.166 31 -86.499c0 -38 -12.167 -67.833 -36.5 -89.5s-58.5 -32.5 -102.5 -32.5c-32.667 0 -64 4.66699 -94 14s-59.667 20.666 -89 33.999z" />
    <glyph glyph-name="six" unicode="6" horiz-adv-x="563" 
d="M40 297c0 -46 5.1709 -87.832 15.5039 -125.499s25.666 -70 45.999 -97s46.166 -47.833 77.499 -62.5s68 -22 110 -22c37.333 0 71 6.16699 101 18.5s55.5 28.833 76.5 49.5s37 44.667 48 72s16.5 56.333 16.5 87c0 62.667 -17.833 112.5 -53.5 149.5
s-85.834 55.5 -150.501 55.5c-38 0 -70.333 -7 -97 -21s-49 -34.333 -67 -61c0.666992 35.333 4.16699 67.666 10.5 96.999s16.5 54.5 30.5 75.5s31.833 37.167 53.5 48.5s48.5 17 80.5 17c30 0 57.167 -4 81.5 -12s45.5 -16.333 63.5 -25l26 94
c-19.333 10.667 -44.333 20.167 -75 28.5s-66 12.5 -106 12.5c-53.333 0 -98.333 -10 -135 -30s-66.334 -47.167 -89.001 -81.5s-39 -74.5 -49 -120.5s-15 -95 -15 -147zM168.004 207.001c0 36 11.498 64.8311 34.498 86.498s53.833 32.5 92.5 32.5
c37.333 0 66.333 -10.5 87 -31.5s31 -49.5 31 -85.5c0 -17.333 -2.66699 -33.666 -8 -48.999s-13.166 -28.666 -23.499 -39.999s-23.166 -20.333 -38.499 -27s-32.666 -10 -51.999 -10c-40.667 0 -71.334 12 -92.001 36s-31 53.333 -31 88z" />
    <glyph glyph-name="seven" unicode="7" horiz-adv-x="482" 
d="M78 0h127l256 565v101h-433v-98h313z" />
    <glyph glyph-name="eight" unicode="8" horiz-adv-x="575" 
d="M44 185c0 -27.333 5.49902 -52.833 16.499 -76.5s27 -44.167 48 -61.5s46.667 -31.166 77 -41.499s64.5 -15.5 102.5 -15.5s72 5.16699 102 15.5s55.5 24.166 76.5 41.499s37.167 37.833 48.5 61.5s17 49.167 17 76.5c0 38 -9.66699 70.833 -29 98.5
s-49.333 49.5 -90 65.5c32 17.333 55.667 39.166 71 65.499s23 54.833 23 85.5c0 54 -19.667 96.833 -59 128.5s-92.666 47.5 -159.999 47.5s-120.833 -15.833 -160.5 -47.5s-59.5 -74.5 -59.5 -128.5c0 -30.667 7.66699 -59.167 23 -85.5s39 -48.166 71 -65.499
c-40.667 -16 -70.5 -37.833 -89.5 -65.5s-28.5 -60.5 -28.5 -98.5zM287.999 386c-34 0 -60.333 9.5 -79 28.5s-28 43.167 -28 72.5c0 28 9 51 27 69s44.667 27 80 27c34.667 0 61 -9 79 -27s27 -41 27 -69c0 -29.333 -9.16699 -53.5 -27.5 -72.5s-44.5 -28.5 -78.5 -28.5z
M163.999 194c0 13.333 2.50195 26.166 7.50195 38.499s12.667 23.333 23 33s23.166 17.334 38.499 23.001s33.666 8.5 54.999 8.5c20.667 0 38.667 -2.83301 54 -8.5s28.166 -13.334 38.499 -23.001s18 -20.667 23 -33s7.5 -25.166 7.5 -38.499
c0 -35.333 -11.167 -62.666 -33.5 -81.999s-52.166 -29 -89.499 -29c-38 0 -68.167 9.66699 -90.5 29s-33.5 46.666 -33.5 81.999z" />
    <glyph glyph-name="nine" unicode="9" horiz-adv-x="563" 
d="M53 31c20 -10.667 45.165 -20.167 75.498 -28.5s65.5 -12.5 105.5 -12.5c53.333 0 98.333 10 135 30s66.334 47.167 89.001 81.5s39 74.5 49 120.5s15 95 15 147c0 46 -5 87.833 -15 125.5s-25.333 70 -46 97s-46.5 47.833 -77.5 62.5s-67.833 22 -110.5 22
c-40 0 -75 -6.16699 -105 -18.5s-55 -28.833 -75 -49.5s-35.167 -44.667 -45.5 -72s-15.5 -56.333 -15.5 -87c0 -62.667 17.833 -112.5 53.5 -149.5s85.834 -55.5 150.501 -55.5c38 0 70.167 7 96.5 21s48.833 34.333 67.5 61c-0.666992 -34 -4 -65.667 -10 -95
s-15.5 -54.5 -28.5 -75.5s-30.5 -37.5 -52.5 -49.5s-49.333 -18 -82 -18c-30 0 -57.167 3.83301 -81.5 11.5s-46.5 16.167 -66.5 25.5zM267.998 340c-37.333 0 -66.3311 10.5 -86.998 31.5s-31 49.5 -31 85.5s10.333 66.167 31 90.5s50.667 36.5 90 36.5
c20.667 0 38.667 -3.33301 54 -10s28.166 -15.667 38.499 -27s18.166 -24.5 23.499 -39.5s8 -31.167 8 -48.5c0 -36 -11.667 -64.833 -35 -86.5s-54 -32.5 -92 -32.5z" />
    <glyph glyph-name="colon" unicode=":" horiz-adv-x="266" 
d="M133 280c22 0 40 6.83301 54 20.5s21 31.5 21 53.5c0 21.333 -7 38.833 -21 52.5s-32 20.5 -54 20.5s-39.833 -6.83301 -53.5 -20.5s-20.5 -31.167 -20.5 -52.5c0 -22 6.83301 -39.833 20.5 -53.5s31.5 -20.5 53.5 -20.5zM59 66c0 -22 6.83301 -39.833 20.5 -53.5
s31.5 -20.5 53.5 -20.5s40 6.83301 54 20.5s21 31.5 21 53.5s-7 39.833 -21 53.5s-32 20.5 -54 20.5s-39.833 -6.83301 -53.5 -20.5s-20.5 -31.5 -20.5 -53.5z" />
    <glyph glyph-name="semicolon" unicode=";" horiz-adv-x="295" 
d="M163 274c23.333 0 42.166 7.16699 56.499 21.5s21.5 32.833 21.5 55.5c0 23.333 -7.16699 42 -21.5 56s-33.166 21 -56.499 21c-22.667 0 -41.167 -7 -55.5 -21s-21.5 -32.667 -21.5 -56c0 -22.667 7.16699 -41.167 21.5 -55.5s32.833 -21.5 55.5 -21.5zM88 134l-62 -280
h95l112 280h-145z" />
    <glyph glyph-name="less" unicode="&#x3c;" horiz-adv-x="547" 
d="M46 276l450 -189v109l-319 127l319 127v109l-450 -189v-94z" />
    <glyph glyph-name="equal" unicode="=" horiz-adv-x="546" 
d="M48 382h450v102h-450v-102zM48 162h450v102h-450v-102z" />
    <glyph glyph-name="greater" unicode="&#x3e;" horiz-adv-x="547" 
d="M51 87l450 189v94l-450 189v-109l319 -127l-319 -127v-109z" />
    <glyph glyph-name="question" unicode="?" horiz-adv-x="465" 
d="M131 193l109 0.000976562v25c0 14 1.5 26 4.5 36s7.5 19.167 13.5 27.5s13.333 16.5 22 24.5s18.667 16.667 30 26c18.667 14.667 35.5 28.834 50.5 42.501s27.667 27.5 38 41.5s18.166 29.167 23.499 45.5s8 35.166 8 56.499c0 54 -18.5 93.833 -55.5 119.5
s-86.833 38.5 -149.5 38.5c-36 0 -70.5 -4.16699 -103.5 -12.5s-60.167 -18.166 -81.5 -29.499l20 -92c21.333 9.33301 45.333 17.666 72 24.999s52.667 11 78 11c28 0 51.333 -4.66699 70 -14s28 -26.333 28 -51c0 -12 -2 -22.5 -6 -31.5s-9.83301 -17.5 -17.5 -25.5
s-17 -16.333 -28 -25l-36.5 -29c-14 -11.333 -26.667 -22.5 -38 -33.5s-20.666 -22.833 -27.999 -35.5s-13 -26.834 -17 -42.501s-6 -34.167 -6 -55.5v-42zM112 66.001c0 -22 6.83301 -39.833 20.5 -53.5s31.5 -20.5 53.5 -20.5c22.667 0 40.834 6.83301 54.501 20.5
s20.5 31.5 20.5 53.5s-6.83301 39.833 -20.5 53.5s-31.834 20.5 -54.501 20.5c-22 0 -39.833 -6.83301 -53.5 -20.5s-20.5 -31.5 -20.5 -53.5z" />
    <glyph glyph-name="at" unicode="@" horiz-adv-x="781" 
d="M35 260c0 -48 7.83496 -92.833 23.502 -134.5s38.5 -77.667 68.5 -108s67 -54.166 111 -71.499s94.333 -26 151 -26c51.333 0 101 6 149 18s89.667 27 125 45l-22 62c-36 -18 -74.333 -32.167 -115 -42.5s-83 -15.5 -127 -15.5c-46.667 0 -87.667 6.5 -123 19.5
s-65 31.667 -89 56s-42 53.5 -54 87.5s-18 72 -18 114c0 46 7.66699 88.5 23 127.5s36.666 72.833 63.999 101.5s59.5 51 96.5 67s77.5 24 121.5 24c36.667 0 70.334 -5.16699 101.001 -15.5s57 -25.166 79 -44.499s39.167 -43 51.5 -71s18.5 -59.667 18.5 -95
c0 -21.333 -2 -41.833 -6 -61.5s-10.167 -37.167 -18.5 -52.5s-18.833 -27.666 -31.5 -36.999s-27.334 -14 -44.001 -14c-17.333 0 -30.166 5 -38.499 15s-12.5 23.667 -12.5 41c0 8 1 17.667 3 29l27 152c-17.333 9.33301 -36.5 16.5 -57.5 21.5s-43.833 7.5 -68.5 7.5
c-32 0 -59.833 -5.66699 -83.5 -17s-43.167 -26.833 -58.5 -46.5s-26.833 -42.834 -34.5 -69.501s-11.5 -55.334 -11.5 -86.001c0 -14.667 1.83301 -28.667 5.5 -42s9.16699 -25 16.5 -35s16.666 -18 27.999 -24s24.666 -9 39.999 -9c29.333 0 53.333 9.33301 72 28
s33.667 40.667 45 66c1.33301 -28 13 -50.667 35 -68s50.333 -26 85 -26c30.667 0 57.667 6.16699 81 18.5s43 29 59 50s28.167 45.667 36.5 74s12.5 58.166 12.5 89.499c0 40.667 -7.5 78.667 -22.5 114s-36.5 66 -64.5 92s-62.333 46.333 -103 61s-86.667 22 -138 22
c-59.333 0 -113 -9.83301 -161 -29.5s-88.833 -47 -122.5 -82s-59.5 -76.333 -77.5 -124s-27 -99.5 -27 -155.5zM357.002 201c-12.667 0 -21.168 4.83203 -25.501 14.499s-6.5 21.167 -6.5 34.5c0 19.333 1.83301 37.5 5.5 54.5s9.5 31.833 17.5 44.5s18 22.667 30 30
s26 11 42 11c10.667 0 20.667 -2 30 -6l-7 -40c-3.33301 -19.333 -7.66602 -37.666 -12.999 -54.999s-11.5 -32.5 -18.5 -45.5s-15.167 -23.333 -24.5 -31s-19.333 -11.5 -30 -11.5z" />
    <glyph glyph-name="A" unicode="A" horiz-adv-x="645" 
d="M9 0h127l53 157h267l53 -157h127l-244 666h-139zM323 554l98 -292h-197z" />
    <glyph glyph-name="B" unicode="B" horiz-adv-x="613" 
d="M70 0l296 0.000976562c32 0 61.167 4.33301 87.5 13s48.833 21 67.5 37s33 35.167 43 57.5s15 47.166 15 74.499c0 45.333 -12.833 81 -38.5 107s-59.5 43.333 -101.5 52c40 14 69.833 35.167 89.5 63.5s29.5 61.5 29.5 99.5c0 50 -16.5 89.5 -49.5 118.5
s-80.5 43.5 -142.5 43.5h-296v-666zM193 384.001v184h139c34 0 59.5 -7.66699 76.5 -23s25.5 -36.333 25.5 -63c0 -26 -8.33301 -48.833 -25 -68.5s-42.667 -29.5 -78 -29.5h-138zM193 98.001l0.000976562 188.001h149c37.333 0 65.666 -8.33301 84.999 -25s29 -39 29 -67
c0 -28.667 -8.66699 -51.834 -26 -69.501s-44 -26.5 -80 -26.5h-157z" />
    <glyph glyph-name="C" unicode="C" horiz-adv-x="587" 
d="M35 333c0 -53.333 7.83301 -101.333 23.5 -144s38 -78.834 67 -108.501s63.833 -52.5 104.5 -68.5s86 -24 136 -24c42 0 79.167 3.83301 111.5 11.5s58.5 16.167 78.5 25.5l-19 99c-20.667 -8 -44 -14.667 -70 -20s-50.667 -8 -74 -8c-75.333 0 -133 19.833 -173 59.5
s-60 98.834 -60 177.501s20 137.834 60 177.501s97.667 59.5 173 59.5c23.333 0 48 -2.66699 74 -8s49.333 -12 70 -20l19 99c-20 9.33301 -46.167 17.833 -78.5 25.5s-69.5 11.5 -111.5 11.5c-50 0 -95.333 -8 -136 -24s-75.5 -38.833 -104.5 -68.5
s-51.333 -65.834 -67 -108.501s-23.5 -90.667 -23.5 -144z" />
    <glyph glyph-name="D" unicode="D" horiz-adv-x="681" 
d="M72 0h250c48.667 0 93.167 8 133.5 24s74.833 38.667 103.5 68s50.834 64.5 66.501 105.5s23.5 86.167 23.5 135.5s-7.83301 94.5 -23.5 135.5s-37.834 76.167 -66.501 105.5s-63.167 52 -103.5 68s-84.833 24 -133.5 24h-250v-666zM197 107v452h119
c28.667 0 55.667 -4.66699 81 -14s47.333 -23.333 66 -42s33.5 -42.167 44.5 -70.5s16.5 -61.5 16.5 -99.5s-5.5 -71.167 -16.5 -99.5s-25.833 -51.833 -44.5 -70.5s-40.667 -32.667 -66 -42s-52.333 -14 -81 -14h-119z" />
    <glyph glyph-name="E" unicode="E" horiz-adv-x="564" 
d="M70 0h448v108h-323v180h302v108h-302v162h323v108h-448v-666z" />
    <glyph glyph-name="F" unicode="F" horiz-adv-x="537" 
d="M70 0h125v265h298v109h-298v184h319v108h-444v-666z" />
    <glyph glyph-name="G" unicode="G" horiz-adv-x="660" 
d="M35 329c0 -48 7.16895 -92.6631 21.502 -133.996s36 -77.333 65 -108s65.5 -54.834 109.5 -72.501s96 -26.5 156 -26.5c20 0 40.333 0.833008 61 2.5s40.5 4 59.5 7s36.667 6.5 53 10.5s30.166 8 41.499 12v288h-118v-209
c-13.333 -3.33301 -28.333 -5.66602 -45 -6.99902s-33.667 -2 -51 -2c-74.667 0 -131.334 20.333 -170.001 61s-58 99.667 -58 177s20 137.166 60 179.499s100.333 63.5 181 63.5c34 0 66 -3.16699 96 -9.5s59 -14.5 87 -24.5l19 101
c-32.667 13.333 -66.167 23.333 -100.5 30s-71.833 10 -112.5 10c-58 0 -109 -8.33301 -153 -25s-81 -40.334 -111 -71.001s-52.667 -67.334 -68 -110.001s-23 -90.334 -23 -143.001z" />
    <glyph glyph-name="H" unicode="H" horiz-adv-x="682" 
d="M70 0h125v282h292v-282h125v666h-125v-273h-292v273h-125v-666z" />
    <glyph glyph-name="I" unicode="I" horiz-adv-x="275" 
d="M75 0h125v666h-125v-666z" />
    <glyph glyph-name="J" unicode="J" horiz-adv-x="387" 
d="M16 10c17.333 -6 37.168 -10.834 59.501 -14.501s43.833 -5.5 64.5 -5.5c58.667 0 103 16.333 133 49s45 77.334 45 134.001v493h-125v-494c0 -26 -5.83301 -45.333 -17.5 -58s-32.5 -19 -62.5 -19c-12.667 0 -26.334 1 -41.001 3s-28.667 4.66699 -42 8z" />
    <glyph glyph-name="K" unicode="K" horiz-adv-x="623" 
d="M70 0h125v316l255 -316h161l-290 341l286 325h-161l-251 -300v300h-125v-666z" />
    <glyph glyph-name="L" unicode="L" horiz-adv-x="522" 
d="M70 0h429v108h-304v558h-125v-666z" />
    <glyph glyph-name="M" unicode="M" horiz-adv-x="823" 
d="M69 0h121v422l160 -338h123l160 338v-422h121v666h-125l-217 -460l-217 460h-126v-666z" />
    <glyph glyph-name="N" unicode="N" horiz-adv-x="707" 
d="M70 0h121v459l322 -459h124v666h-122v-459l-321 459h-124v-666z" />
    <glyph glyph-name="O" unicode="O" 
d="M35 333c0 -49.333 6.33301 -95 19 -137s32 -78.333 58 -109s58.5 -54.834 97.5 -72.501s85.167 -26.5 138.5 -26.5c52.667 0 98.667 8.83301 138 26.5s72 41.834 98 72.501s45.333 67 58 109s19 87.667 19 137c0 48.667 -6.33301 94.167 -19 136.5s-32 78.833 -58 109.5
s-58.667 54.834 -98 72.501s-85.333 26.5 -138 26.5c-53.333 0 -99.5 -8.83301 -138.5 -26.5s-71.5 -41.834 -97.5 -72.501s-45.333 -67.167 -58 -109.5s-19 -87.833 -19 -136.5zM348 95c-32.667 0 -60.834 5.83301 -84.501 17.5s-43.167 28 -58.5 49s-26.666 46 -33.999 75
s-11 61.167 -11 96.5c0 34.667 3.66699 66.667 11 96s18.666 54.5 33.999 75.5s34.833 37.333 58.5 49s51.834 17.5 84.501 17.5s60.834 -5.83301 84.501 -17.5s43.167 -28 58.5 -49s26.666 -46.167 33.999 -75.5s11 -61.333 11 -96c0 -35.333 -3.66699 -67.5 -11 -96.5
s-18.666 -54 -33.999 -75s-34.833 -37.333 -58.5 -49s-51.834 -17.5 -84.501 -17.5z" />
    <glyph glyph-name="P" unicode="P" horiz-adv-x="601" 
d="M70 0h125.001v242h164c33.333 0 63.666 5.5 90.999 16.5s50.5 26.167 69.5 45.5s33.667 42 44 68s15.5 53.667 15.5 83c0 30 -5 57.833 -15 83.5s-24.5 48 -43.5 67s-42 33.833 -69 44.5s-57.833 16 -92.5 16h-289v-666zM195.001 343v222h147
c34 0 61.167 -9.5 81.5 -28.5s30.5 -46.167 30.5 -81.5s-10 -62.833 -30 -82.5s-47 -29.5 -81 -29.5h-148z" />
    <glyph glyph-name="Q" unicode="Q" 
d="M536 -109l88 53.002l-69 113c36 31.333 62.667 70.666 80 117.999s26 100 26 158c0 48.667 -6.33301 94.167 -19 136.5s-32 78.833 -58 109.5s-58.667 54.834 -98 72.501s-85.333 26.5 -138 26.5c-53.333 0 -99.5 -8.83301 -138.5 -26.5s-71.5 -41.834 -97.5 -72.501
s-45.333 -67.167 -58 -109.5s-19 -87.833 -19 -136.5c0 -49.333 6.33301 -95 19 -137s32 -78.333 58 -109s58.5 -54.834 97.5 -72.501s85.167 -26.5 138.5 -26.5c44 0 83 6 117 18zM536 333.002c0 -35.333 -3.50098 -67.333 -10.501 -96s-18.5 -53.667 -34.5 -75l-48 79
l-82 -51l51 -86c-19.333 -6 -40.666 -9 -63.999 -9c-32.667 0 -60.834 5.83301 -84.501 17.5s-43.167 28 -58.5 49s-26.666 46 -33.999 75s-11 61.167 -11 96.5c0 34.667 3.66699 66.667 11 96s18.666 54.5 33.999 75.5s34.833 37.333 58.5 49s51.834 17.5 84.501 17.5
s60.834 -5.83301 84.501 -17.5s43.167 -28 58.5 -49s26.666 -46.167 33.999 -75.5s11 -61.333 11 -96z" />
    <glyph glyph-name="R" unicode="R" horiz-adv-x="660" 
d="M595 458c0 30.667 -4.83301 58.833 -14.5 84.5s-24 47.667 -43 66s-42.167 32.5 -69.5 42.5s-58.333 15 -93 15h-305v-666h125v249h124l159 -249h157l-179 262c43.333 15.333 77.333 40.333 102 75s37 75 37 121zM470 457.999c0 -35.333 -10.333 -62.5 -31 -81.5
s-48.334 -28.5 -83.001 -28.5h-161v217h161c34.667 0 62.334 -9.33301 83.001 -28s31 -45 31 -79z" />
    <glyph glyph-name="S" unicode="S" horiz-adv-x="566" 
d="M534 190c0 32 -4.83301 59.002 -14.5 81.002s-24 40.667 -43 56s-42.333 28.166 -70 38.499s-59.5 19.833 -95.5 28.5c-27.333 6.66699 -50.333 13 -69 19s-33.834 12.5 -45.501 19.5s-20.167 15.333 -25.5 25s-8 21.5 -8 35.5c0 32 10.5 53.833 31.5 65.5
s52.167 17.5 93.5 17.5c35.333 0 70.166 -4.16699 104.499 -12.5s65.833 -18.833 94.5 -31.5l23 100c-32.667 15.333 -67 26.833 -103 34.5s-76.333 11.5 -121 11.5c-37.333 0 -71.166 -3.33301 -101.499 -10s-56.333 -17.834 -78 -33.501s-38.5 -36.167 -50.5 -61.5
s-18 -56.333 -18 -93c0 -29.333 4.66699 -54.833 14 -76.5s23.5 -40.5 42.5 -56.5s42.333 -29.333 70 -40s60.167 -20 97.5 -28c26.667 -6 49.334 -11.833 68.001 -17.5s33.667 -12.334 45 -20.001s19.666 -16.667 24.999 -27s8 -23.166 8 -38.499
c0 -31.333 -11.833 -53.333 -35.5 -66s-55.5 -19 -95.5 -19c-33.333 0 -68.166 4.33301 -104.499 13s-71.5 20 -105.5 34l-27 -101c34.667 -14.667 73 -26.5 115 -35.5s83 -13.5 123 -13.5c80.667 0 143.5 17.667 188.5 53s67.5 85 67.5 149z" />
    <glyph glyph-name="T" unicode="T" horiz-adv-x="551" 
d="M530 558v108h-508v-108h191v-558h125v558h192z" />
    <glyph glyph-name="U" unicode="U" horiz-adv-x="683" 
d="M616 666h-126v-426c0 -46.667 -13.333 -82.5 -40 -107.5s-62.667 -37.5 -108 -37.5c-46 0 -82.333 12.5 -109 37.5s-40 60.833 -40 107.5v426h-125v-419c0 -35.333 5.66699 -68.666 17 -99.999s28.333 -58.666 51 -81.999s51.167 -42 85.5 -56s74.5 -21 120.5 -21
s86.167 7 120.5 21s62.833 32.667 85.5 56s39.667 50.666 51 81.999s17 64.666 17 99.999v419z" />
    <glyph glyph-name="V" unicode="V" horiz-adv-x="593" 
d="M224 0h145l217 666h-131l-158 -524l-159 524h-131z" />
    <glyph glyph-name="W" unicode="W" horiz-adv-x="878" 
d="M509 666h-139l-131 -463l-108 463h-126l175 -666h117l143 529l141 -529h117l174 666h-126l-107 -463z" />
    <glyph glyph-name="X" unicode="X" horiz-adv-x="593" 
d="M574 666h-136l-142 -225l-141 225h-136l211 -327l-219 -339h137l148 236l149 -236h137l-220 339z" />
    <glyph glyph-name="Y" unicode="Y" horiz-adv-x="559" 
d="M557 666h-132l-146 -293l-145 293h-132l215 -403v-263h125v263z" />
    <glyph glyph-name="Z" unicode="Z" horiz-adv-x="579" 
d="M536 0v108h-344l334 447v111h-468v-108h324l-334 -447v-111h488z" />
    <glyph glyph-name="bracketleft" unicode="[" horiz-adv-x="325" 
d="M299 -150v105h-102v678h102v105h-224v-888h224z" />
    <glyph glyph-name="backslash" unicode="\" horiz-adv-x="462" 
d="M305 -100h118l-271 776h-117z" />
    <glyph glyph-name="bracketright" unicode="]" horiz-adv-x="325" 
d="M250 -150v888h-224v-105h102v-678h-102v-105h224z" />
    <glyph glyph-name="asciicircum" unicode="^" horiz-adv-x="487" 
d="M301 666h-114l-157 -329h111l103 231l102 -231h111z" />
    <glyph glyph-name="underscore" unicode="_" horiz-adv-x="429" 
d="M430 -130v60h-431v-60h431z" />
    <glyph glyph-name="grave" unicode="`" horiz-adv-x="349" 
d="M161 546h118l-54 152h-155z" />
    <glyph glyph-name="a" unicode="a" horiz-adv-x="529" 
d="M472 0l0.000976562 325c0 58.667 -17.167 101.5 -51.5 128.5s-85.5 40.5 -153.5 40.5c-36 0 -70.167 -3.83301 -102.5 -11.5s-61.5 -18.167 -87.5 -31.5l20 -95c22.667 10.667 46.5 19.167 71.5 25.5s52.5 9.5 82.5 9.5c66 0 99 -24 99 -72v-31h-135
c-24.667 0 -47.5 -2.83301 -68.5 -8.5s-39.167 -14.5 -54.5 -26.5s-27.333 -27.667 -36 -47s-13 -43 -13 -71c0 -45.333 13.167 -80.833 39.5 -106.5s63.5 -38.5 111.5 -38.5c35.333 0 67.166 7 95.499 21s50.5 32.667 66.5 56v-67h116zM350.001 173
c0 -29.333 -10.333 -53 -31 -71s-48 -27 -82 -27c-49.333 0 -74 21.333 -74 64s24.667 64 74 64h113v-30z" />
    <glyph glyph-name="b" unicode="b" horiz-adv-x="558" 
d="M526 242c0 36 -3.66797 69.333 -11.001 100s-18.833 57.167 -34.5 79.5s-35.5 40 -59.5 53s-52.667 19.5 -86 19.5c-38 0 -68.833 -8.16699 -92.5 -24.5s-42.167 -37.5 -55.5 -63.5v260h-122v-666h118v78c13.333 -26 32.666 -47.167 57.999 -63.5s57.333 -24.5 96 -24.5
c32.667 0 60.834 6.5 84.501 19.5s43.334 30.667 59.001 53s27.167 48.833 34.5 79.5s11 64 11 100zM403.999 242c0 -47.333 -8 -85 -24 -113s-42.667 -42 -80 -42c-39.333 0 -68 14.5 -86 43.5s-27 66.167 -27 111.5c0 46 9 83.333 27 112s46.667 43 86 43
c37.333 0 64 -14.167 80 -42.5s24 -65.833 24 -112.5z" />
    <glyph glyph-name="c" unicode="c" horiz-adv-x="449" 
d="M420 462c-17.333 10 -39.333 17.832 -66 23.499s-54.334 8.5 -83.001 8.5c-40 0 -75 -6 -105 -18s-54.833 -29 -74.5 -51s-34.5 -48.5 -44.5 -79.5s-15 -65.5 -15 -103.5s5 -72.5 15 -103.5s24.833 -57.5 44.5 -79.5s44.5 -39 74.5 -51s65 -18 105 -18
c28.667 0 56.334 2.83301 83.001 8.5s48.667 13.5 66 23.5l-18 90c-15.333 -7.33301 -32.333 -13.166 -51 -17.499s-38.667 -6.5 -60 -6.5c-25.333 0 -46.833 3.66699 -64.5 11s-31.834 17.833 -42.501 31.5s-18.334 29.834 -23.001 48.501s-7 39.667 -7 63
c0 22.667 2.33301 43.667 7 63s12.334 35.666 23.001 48.999s24.834 23.833 42.501 31.5s39.167 11.5 64.5 11.5c21.333 0 41.333 -2.33301 60 -7s35.667 -10.667 51 -18z" />
    <glyph glyph-name="d" unicode="d" horiz-adv-x="558" 
d="M32 242c0 -36 3.66309 -69.333 10.9961 -100s18.833 -57.167 34.5 -79.5s35.334 -40 59.001 -53s51.834 -19.5 84.501 -19.5c38.667 0 70.667 8.16699 96 24.5s44.666 37.5 57.999 63.5v-78h118v666h-122v-260c-13.333 26 -31.833 47.167 -55.5 63.5
s-54.5 24.5 -92.5 24.5c-33.333 0 -62.166 -6.5 -86.499 -19.5s-44.166 -30.667 -59.499 -53s-26.666 -48.833 -33.999 -79.5s-11 -64 -11 -100zM152.996 242c0 46.667 8.16699 84.167 24.5 112.5s43.166 42.5 80.499 42.5c39.333 0 68 -14.333 86 -43s27 -66 27 -112
c0 -45.333 -9.16699 -82.5 -27.5 -111.5s-46.833 -43.5 -85.5 -43.5c-37.333 0 -64.166 14 -80.499 42s-24.5 65.667 -24.5 113z" />
    <glyph glyph-name="e" unicode="e" horiz-adv-x="498" 
d="M467 198v60.998c0 34.667 -3.83301 66.334 -11.5 95.001s-19.834 53.334 -36.501 74.001s-37.667 36.834 -63 48.501s-56 17.5 -92 17.5c-40 0 -74.667 -6.5 -104 -19.5s-53.5 -30.833 -72.5 -53.5s-33 -49.334 -42 -80.001s-13.5 -63.667 -13.5 -99
c0 -38.667 4.83301 -73.5 14.5 -104.5s24.5 -57.5 44.5 -79.5s45.333 -38.833 76 -50.5s67 -17.5 109 -17.5c36 0 69.833 3.66699 101.5 11s60.167 17.333 85.5 30l-21 83c-22 -10 -45.167 -18 -69.5 -24s-50.166 -9 -77.499 -9c-45.333 0 -79 10 -101 30s-34.667 49 -38 87
h311zM262 409.998c32.667 0 55.833 -10.333 69.5 -31s20.5 -48 20.5 -82v-13h-197c4 42 14.333 73.5 31 94.5s42 31.5 76 31.5z" />
    <glyph glyph-name="f" unicode="f" horiz-adv-x="307" 
d="M311 662c-11.333 4 -24.333 7.33203 -39 9.99902s-30.667 4 -48 4c-51.333 0 -88.333 -12.333 -111 -37s-34 -62 -34 -112v-43h-57v-97h57v-387h122v387h88v97h-88v41c0 21.333 4.33301 36 13 44s21.667 12 39 12c9.33301 0 18.5 -0.666992 27.5 -2
s17.167 -2.66602 24.5 -3.99902z" />
    <glyph glyph-name="g" unicode="g" horiz-adv-x="558" 
d="M493 484l-119.003 -0.000976562v-78c-15.333 30 -36 52.167 -62 66.5s-56 21.5 -90 21.5c-33.333 0 -62 -6.33301 -86 -19s-43.667 -30 -59 -52s-26.666 -47.667 -33.999 -77s-11 -60.333 -11 -93c0 -33.333 3.5 -64.666 10.5 -93.999s18.167 -55 33.5 -77
s35 -39.333 59 -52s53 -19 87 -19c35.333 0 65.5 8 90.5 24s44.833 37.333 59.5 64v-80c0 -16.667 -1.83301 -32 -5.5 -46s-10.167 -26 -19.5 -36s-21.666 -17.833 -36.999 -23.5s-34.333 -8.5 -57 -8.5c-25.333 0 -51.5 2.83301 -78.5 8.5s-52.5 13.167 -76.5 22.5l-18 -91
c12.667 -4.66699 26.334 -9 41.001 -13s29.667 -7.5 45 -10.5s30.5 -5.33301 45.5 -7s29.167 -2.5 42.5 -2.5c84.667 0 145.667 18.667 183 56s56 89.333 56 156v460zM371.997 252.999c0 -47.333 -10.167 -83.333 -30.5 -108s-46.833 -37 -79.5 -37
c-36.667 0 -63.834 12.667 -81.501 38s-26.5 61 -26.5 107c0 44 8.83301 79.167 26.5 105.5s44.834 39.5 81.501 39.5c34 0 60.833 -12.333 80.5 -37s29.5 -60.667 29.5 -108z" />
    <glyph glyph-name="h" unicode="h" horiz-adv-x="551" 
d="M492 0l0.000976562 328.999c0 52.667 -11.833 93.334 -35.5 122.001s-63.5 43 -119.5 43c-38.667 0 -70.334 -8.66699 -95.001 -26s-43 -39 -55 -65v263h-122v-666h122v264c0 40 9.16699 70.833 27.5 92.5s44.5 32.5 78.5 32.5c26 0 45.333 -7 58 -21s19 -33.667 19 -59
v-309h122z" />
    <glyph glyph-name="i" unicode="i" horiz-adv-x="252" 
d="M51 617c0 -20 6.66699 -37.5 20 -52.5s31.666 -22.5 54.999 -22.5c22.667 0 40.667 7.5 54 22.5s20 32.5 20 52.5c0 21.333 -6.66699 39.166 -20 53.499s-31.333 21.5 -54 21.5c-23.333 0 -41.666 -7.16699 -54.999 -21.5s-20 -32.166 -20 -53.499zM187 0v484h-122v-484
h122z" />
    <glyph glyph-name="j" unicode="j" horiz-adv-x="251" 
d="M51 617c0 -20 6.66699 -37.5 20 -52.5s31.666 -22.5 54.999 -22.5c22.667 0 40.667 7.5 54 22.5s20 32.5 20 52.5c0 21.333 -6.66699 39.166 -20 53.499s-31.333 21.5 -54 21.5c-23.333 0 -41.666 -7.16699 -54.999 -21.5s-20 -32.166 -20 -53.499zM23 -85
c-7.33301 0 -14.001 0.332031 -20.001 0.999023s-12.333 2 -19 4l-9 -97c9.33301 -3.33301 21 -6 35 -8s27.667 -3 41 -3c46 0 80.167 11.5 102.5 34.5s33.5 55.5 33.5 97.5v540h-122v-524c0 -15.333 -3.16699 -26.666 -9.5 -33.999s-17.166 -11 -32.499 -11z" />
    <glyph glyph-name="k" unicode="k" horiz-adv-x="498" 
d="M355 0h141l-193 246l185 238h-140l-161 -216v398h-122v-666h122v223z" />
    <glyph glyph-name="l" unicode="l" horiz-adv-x="281" 
d="M263 3l-3 91.001c-11.333 -3.33301 -23 -5 -35 -5c-15.333 0 -25.833 3.33301 -31.5 10s-8.5 16.667 -8.5 30v537h-122v-538c0 -42.667 9 -76.167 27 -100.5s49.667 -36.5 95 -36.5c14.667 0 29.167 1.16699 43.5 3.5s25.833 5.16602 34.5 8.49902z" />
    <glyph glyph-name="m" unicode="m" horiz-adv-x="836" 
d="M481 0v274c0 37.333 8.5 65.833 25.5 85.5s40.833 29.5 71.5 29.5c25.333 0 44.333 -7 57 -21s19 -33.667 19 -59v-309h122v329c0 52.667 -11.833 93.334 -35.5 122.001s-63.5 43 -119.5 43c-38 0 -69.167 -9.33301 -93.5 -28s-42.833 -40.334 -55.5 -65.001
c-12 32 -28.833 55.5 -50.5 70.5s-53.167 22.5 -94.5 22.5c-38 0 -69 -9.33301 -93 -28s-41 -40.667 -51 -66v84h-118v-484h122v264c0 40 8 70.833 24 92.5s40 32.5 72 32.5c25.333 0 44.333 -7 57 -21s19 -33.667 19 -59v-309h122z" />
    <glyph glyph-name="n" unicode="n" horiz-adv-x="551" 
d="M492 0v328.999c0 52.667 -11.833 93.334 -35.5 122.001s-63.5 43 -119.5 43c-20.667 0 -39.167 -2.5 -55.5 -7.5s-30.833 -11.833 -43.5 -20.5s-23.5 -18.667 -32.5 -30s-16.5 -23.333 -22.5 -36v84h-118v-484h122v264c0 40 9.16699 70.833 27.5 92.5
s44.5 32.5 78.5 32.5c26 0 45.333 -7 58 -21s19 -33.667 19 -59v-309h122z" />
    <glyph glyph-name="o" unicode="o" horiz-adv-x="525" 
d="M493 242c0 36.667 -4.83105 70.334 -14.498 101.001s-24.167 57.167 -43.5 79.5s-43.333 39.833 -72 52.5s-62 19 -100 19s-71.333 -6.33301 -100 -19s-52.834 -30.167 -72.501 -52.5s-34.334 -48.833 -44.001 -79.5s-14.5 -64.334 -14.5 -101.001
s4.83301 -70.334 14.5 -101.001s24.167 -57.167 43.5 -79.5s43.5 -39.833 72.5 -52.5s62.5 -19 100.5 -19s71.333 6.33301 100 19s52.667 30.167 72 52.5s33.833 48.833 43.5 79.5s14.5 64.334 14.5 101.001zM371.002 242c0 -50 -8.5 -88.333 -25.5 -115
s-44.5 -40 -82.5 -40s-65.667 13.333 -83 40s-26 65 -26 115s8.66699 88.333 26 115s45 40 83 40s65.5 -13.333 82.5 -40s25.5 -65 25.5 -115z" />
    <glyph glyph-name="p" unicode="p" horiz-adv-x="558" 
d="M335 -10c33.333 0 62.001 6.5 86.001 19.5s43.833 30.667 59.5 53s27.167 48.833 34.5 79.5s11 64 11 100s-3.66699 69.333 -11 100s-18.833 57.167 -34.5 79.5s-35.334 40 -59.001 53s-51.834 19.5 -84.501 19.5c-38.667 0 -70.667 -8.16699 -96 -24.5
s-44.666 -37.5 -57.999 -63.5v78h-118v-662h122v256c13.333 -26 31.833 -47.167 55.5 -63.5s54.5 -24.5 92.5 -24.5zM300.001 87c-39.333 0 -68 14.5 -86 43.5s-27 66.167 -27 111.5c0 46 9 83.333 27 112s46.667 43 86 43c37.333 0 64 -14.167 80 -42.5
s24 -65.833 24 -112.5c0 -47.333 -8 -85 -24 -113s-42.667 -42 -80 -42z" />
    <glyph glyph-name="q" unicode="q" horiz-adv-x="558" 
d="M32 242c0 -36 3.6709 -69.333 11.0039 -100s18.666 -57.167 33.999 -79.5s35.166 -40 59.499 -53s53.166 -19.5 86.499 -19.5c38 0 68.833 8.16699 92.5 24.5s42.167 37.5 55.5 63.5v-256h122v662h-118v-78c-13.333 26 -32.666 47.167 -57.999 63.5
s-57.333 24.5 -96 24.5c-32.667 0 -60.834 -6.5 -84.501 -19.5s-43.334 -30.667 -59.001 -53s-27.167 -48.833 -34.5 -79.5s-11 -64 -11 -100zM153.004 242c0 46.667 8.16699 84.167 24.5 112.5s43.166 42.5 80.499 42.5c39.333 0 68 -14.333 86 -43s27 -66 27 -112
c0 -45.333 -9.16699 -82.5 -27.5 -111.5s-46.833 -43.5 -85.5 -43.5c-37.333 0 -64.166 14 -80.499 42s-24.5 65.667 -24.5 113z" />
    <glyph glyph-name="r" unicode="r" horiz-adv-x="350" 
d="M346 373l-0.000976562 111.999c-4.66699 1.33301 -11 2.5 -19 3.5s-15.667 1.5 -23 1.5c-34 0 -60.167 -8.66699 -78.5 -26s-32.166 -41 -41.499 -71v91h-119v-484h123v226c0 48.667 9 85.834 27 111.501s47.667 38.5 89 38.5c14.667 0 28.667 -1 42 -3z" />
    <glyph glyph-name="s" unicode="s" horiz-adv-x="438" 
d="M410 151c0 22 -3.83105 40.6641 -11.498 55.9971s-18.334 28.5 -32.001 39.5s-30.167 20.5 -49.5 28.5s-40.333 15.333 -63 22c-18.667 5.33301 -34.334 10 -47.001 14s-23 8.33301 -31 13s-13.833 9.83398 -17.5 15.501s-5.5 12.834 -5.5 21.501
c0 16.667 6.16699 28 18.5 34s30.5 9 54.5 9c26 0 51.167 -3 75.5 -9s46.166 -13.333 65.499 -22l22 88c-22 10.667 -46.5 18.834 -73.5 24.501s-58.167 8.5 -93.5 8.5c-60 0 -106.5 -11.833 -139.5 -35.5s-49.5 -60.5 -49.5 -110.5c0 -20 2.83301 -37.667 8.5 -53
s15.334 -29.166 29.001 -41.499s32.167 -23.833 55.5 -34.5s52.666 -21 87.999 -31c28 -8 47.667 -15.833 59 -23.5s17 -18.834 17 -33.501c0 -33.333 -24.667 -50 -74 -50c-25.333 0 -51 3.16699 -77 9.5s-51.667 14.5 -77 24.5l-26 -88c28 -11.333 58 -20.333 90 -27
s62.667 -10 92 -10c60.667 0 107.834 14.167 141.501 42.5s50.5 67.833 50.5 118.5z" />
    <glyph glyph-name="t" unicode="t" horiz-adv-x="342" 
d="M311 3l-2.99902 90c-16.667 -3.33301 -32 -5 -46 -5c-19.333 0 -32.5 3.83301 -39.5 11.5s-10.5 19.5 -10.5 35.5v246h102v103h-102v125h-122v-125h-65v-103h65v-258c0 -45.333 10.667 -78.833 32 -100.5s55.333 -32.5 102 -32.5c16 0 31.667 1.33301 47 4
s28.666 5.66699 39.999 9z" />
    <glyph glyph-name="u" unicode="u" horiz-adv-x="546" 
d="M60 484l-0.000976562 -329c0 -52 11.833 -92.5 35.5 -121.5s62.5 -43.5 116.5 -43.5c40 0 72.333 9.5 97 28.5s42.667 40.833 54 65.5v-84h119v484h-122v-263c0 -40 -8.66699 -71 -26 -93s-43 -33 -77 -33c-25.333 0 -44.166 7 -56.499 21s-18.5 33.667 -18.5 59v309
h-122z" />
    <glyph glyph-name="v" unicode="v" horiz-adv-x="456" 
d="M228 118l-102 366h-128l160 -484h140l160 484h-128z" />
    <glyph glyph-name="w" unicode="w" horiz-adv-x="725" 
d="M426 484h-127l-95 -342l-83 342h-120l139 -484h124l99 351l99 -351h123l139 484h-120l-82 -342z" />
    <glyph glyph-name="x" unicode="x" horiz-adv-x="468" 
d="M450 484h-126l-90 -145l-90 145h-125l152 -238l-157 -246h125l95 152l95 -152h126l-158 246z" />
    <glyph glyph-name="y" unicode="y" horiz-adv-x="448" 
d="M226 130l-100 354h-128l167 -487l-54 -175h123l216 662h-128z" />
    <glyph glyph-name="z" unicode="z" horiz-adv-x="458" 
d="M421 0v97h-236l232 291v96h-363v-96h215l-227 -291v-97h379z" />
    <glyph glyph-name="braceleft" unicode="{" horiz-adv-x="353" 
d="M239 156c0 41.333 -9.33301 73.333 -28 96s-48.667 36.667 -90 42c41.333 5.33301 71.333 19.333 90 42s28 54.667 28 96v150c0 34 15.333 51 46 51h44v105h-78c-44 0 -77.333 -11.5 -100 -34.5s-34 -57.5 -34 -103.5v-175c0 -24.667 -6.16699 -44.167 -18.5 -58.5
s-33.5 -21.5 -63.5 -21.5h-18v-102h18c30 0 51.167 -7.16699 63.5 -21.5s18.5 -33.833 18.5 -58.5v-175c0 -46 11.333 -80.5 34 -103.5s56 -34.5 100 -34.5h78v105h-44c-30.667 0 -46 17 -46 51v150z" />
    <glyph glyph-name="bar" unicode="|" horiz-adv-x="263" 
d="M184 -250v1000h-104v-1000h104z" />
    <glyph glyph-name="braceright" unicode="}" horiz-adv-x="353" 
d="M115 6c0 -34 -15.667 -51 -47 -51h-44v-105h79c43.333 0 76.5 11.5 99.5 34.5s34.5 57.5 34.5 103.5v175c0 24.667 6.16699 44.167 18.5 58.5s33.5 21.5 63.5 21.5h17v102h-17c-30 0 -51.167 7.16699 -63.5 21.5s-18.5 33.833 -18.5 58.5v175
c0 46 -11.5 80.5 -34.5 103.5s-56.167 34.5 -99.5 34.5h-79v-105h44c31.333 0 47 -17 47 -51v-150c0 -41.333 9.16699 -73.333 27.5 -96s48.166 -36.667 89.499 -42c-41.333 -5.33301 -71.166 -19.333 -89.499 -42s-27.5 -54.667 -27.5 -96v-150z" />
    <glyph glyph-name="asciitilde" unicode="~" horiz-adv-x="565" 
d="M531 383l-104.002 30.999c-5.33301 -15.333 -12 -29.5 -20 -42.5s-20.333 -19.5 -37 -19.5c-10.667 0 -23.167 3.16699 -37.5 9.5l-46 21c-16.333 7.66699 -33.166 14.667 -50.499 21s-34.666 9.5 -51.999 9.5c-22 0 -40.5 -3.33301 -55.5 -10
s-27.833 -16.167 -38.5 -28.5s-19.834 -27.333 -27.501 -45s-15.167 -37.5 -22.5 -59.5l103 -36l10 22c3.33301 7.33301 7 13.833 11 19.5s9 10.334 15 14.001s13.333 5.5 22 5.5c12 0 25.833 -3.16699 41.5 -9.5s32.167 -13.5 49.5 -21.5s34.833 -15.167 52.5 -21.5
s34.167 -9.5 49.5 -9.5c20 0 37.333 4.16699 52 12.5s27.334 19.5 38.001 33.5s19.667 30 27 48s14 36.667 20 56z" />
    <glyph glyph-name="uni00A0" unicode="&#xa0;" horiz-adv-x="220" 
 />
    <glyph glyph-name="exclamdown" unicode="&#xa1;" horiz-adv-x="266" 
d="M59 421c0 -22 6.83301 -39.833 20.5 -53.5s31.5 -20.5 53.5 -20.5s40 6.83301 54 20.5s21 31.5 21 53.5c0 21.333 -7 38.833 -21 52.5s-32 20.5 -54 20.5s-39.833 -6.83301 -53.5 -20.5s-20.5 -31.167 -20.5 -52.5zM167 288h-68l-30 -220v-246h129v246z" />
    <glyph glyph-name="cent" unicode="&#xa2;" horiz-adv-x="461" 
d="M208 -16l120 -0.000976562v122c19.333 2.66699 37.166 6.5 53.499 11.5s30.5 10.833 42.5 17.5l-21 88c-14.667 -6.66699 -31.5 -12.5 -50.5 -17.5s-39.833 -7.5 -62.5 -7.5c-48 0 -82.667 12 -104 36s-32 57.333 -32 100s10.667 76 32 100s56 36 104 36
c22.667 0 43.5 -2.5 62.5 -7.5s35.833 -10.833 50.5 -17.5l21 88c-12 6 -26.167 11.5 -42.5 16.5s-34.166 9.16699 -53.499 12.5v120h-120v-122c-56.667 -11.333 -99.667 -36.666 -129 -75.999s-44 -89.333 -44 -150c0 -61.333 14.667 -111.5 44 -150.5
s72.333 -64.167 129 -75.5v-124z" />
    <glyph glyph-name="sterling" unicode="&#xa3;" horiz-adv-x="539" 
d="M49 263l85.001 0.000976562c-5.33301 -35.333 -16 -66.833 -32 -94.5s-38.333 -54.167 -67 -79.5v-89h457v98h-319c45.333 44 73 99 83 165h174v98h-170v104c0 40 8.33301 68.833 25 86.5s44 26.5 82 26.5c25.333 0 49.333 -2.83301 72 -8.5s42 -12.167 58 -19.5l21 92
c-20.667 9.33301 -44.834 17.333 -72.501 24s-58.167 10 -91.5 10c-32.667 0 -62.167 -3.5 -88.5 -10.5s-49 -18.833 -68 -35.5s-33.667 -38.334 -44 -65.001s-15.5 -60 -15.5 -100v-104h-89v-98z" />
    <glyph glyph-name="currency" unicode="&#xa4;" horiz-adv-x="590" 
d="M390 509c-12 6.66699 -26.498 12 -43.498 16s-34.167 6 -51.5 6c-18 0 -35.5 -2 -52.5 -6s-31.167 -9.33301 -42.5 -16l-89 89l-73 -70l81 -82c-27.333 -35.333 -41 -76.333 -41 -123c0 -47.333 13.667 -88.333 41 -123l-81 -82l73 -70l89 88
c13.333 -6.66699 28 -11.834 44 -15.501s33 -5.5 51 -5.5c17.333 0 34.166 1.83301 50.499 5.5s31.166 8.83398 44.499 15.501l88 -88l74 70l-81 82c13.333 17.333 23.5 36.333 30.5 57s10.5 42.667 10.5 66s-3.5 45.333 -10.5 66s-17.167 39.667 -30.5 57l81 82l-74 70z
M180.002 323c0 36 10 65.833 30 89.5s48.333 35.5 85 35.5s64.834 -11.833 84.501 -35.5s29.5 -53.5 29.5 -89.5s-9.83301 -65.833 -29.5 -89.5s-47.834 -35.5 -84.501 -35.5s-65 11.833 -85 35.5s-30 53.5 -30 89.5z" />
    <glyph glyph-name="yen" unicode="&#xa5;" horiz-adv-x="545" 
d="M63 150h148v-150h122v150h149v88h-149v19l29 66h120v91h-79l113 252h-127l-117 -303l-116 303h-127l112 -252h-78v-91h118l30 -66v-19h-148v-88z" />
    <glyph glyph-name="brokenbar" unicode="&#xa6;" horiz-adv-x="263" 
d="M184 750h-104v-398h104v398zM184 -250v398h-104v-398h104z" />
    <glyph glyph-name="section" unicode="&#xa7;" horiz-adv-x="542" 
d="M504 249c0 26 -5.83789 48.332 -17.5049 66.999s-26.667 34.834 -45 48.501s-39.166 25.667 -62.499 36l-70 30.5l-59.5 24c-16.333 6.66699 -29.666 13.167 -39.999 19.5s-18 13.5 -23 21.5s-7.5 18 -7.5 30c0 23.333 8.33301 39.333 25 48s44 13 82 13
c30 0 59.833 -3.5 89.5 -10.5s55.834 -15.167 78.501 -24.5l20 86c-58 25.333 -122.333 38 -193 38c-38.667 0 -71.834 -3.66699 -99.501 -11s-50.5 -17.833 -68.5 -31.5s-31.167 -29.834 -39.5 -48.501s-12.5 -39.334 -12.5 -62.001c0 -28 6.16699 -51.5 18.5 -70.5
s28.5 -35.833 48.5 -50.5c-10.667 -6.66699 -21.167 -14.5 -31.5 -23.5s-19.666 -19.333 -27.999 -31s-15 -24.834 -20 -39.501s-7.5 -31 -7.5 -49c0 -26 4.16699 -48.5 12.5 -67.5s20.833 -36 37.5 -51s37 -28.5 61 -40.5s52 -23.667 84 -35
c20.667 -7.33301 39.334 -14.333 56.001 -21s30.834 -13.5 42.501 -20.5s20.5 -14.667 26.5 -23s9 -18.166 9 -29.499c0 -25.333 -10.333 -43.333 -31 -54s-48.667 -16 -84 -16c-30 0 -61.667 4.5 -95 13.5s-64 20.167 -92 33.5l-26 -87c34 -15.333 69.333 -27.333 106 -36
s75.667 -13 117 -13c32.667 0 62.667 3.83301 90 11.5s50.833 18.834 70.5 33.501s35 32.167 46 52.5s16.5 43.166 16.5 68.499c0 28.667 -5.5 51.834 -16.5 69.501s-28.5 34.834 -52.5 51.501c22.667 16.667 42.5 38.167 59.5 64.5s25.5 54.833 25.5 85.5zM238.995 346.999
c24 -9.33301 45.001 -18.001 63.001 -26.001s33.333 -16.167 46 -24.5s22.167 -17.666 28.5 -27.999s9.5 -22.833 9.5 -37.5c0 -20.667 -4.83301 -38.667 -14.5 -54s-20.5 -28 -32.5 -38l-55 22c-21.333 8.66699 -39.833 16.5 -55.5 23.5s-28.667 14.5 -39 22.5
s-18 16.833 -23 26.5s-7.5 21.167 -7.5 34.5c0 22 5.66699 39.833 17 53.5s22.666 26.167 33.999 37.5z" />
    <glyph glyph-name="dieresis" unicode="&#xa8;" horiz-adv-x="459" 
d="M261 619c0 -17.333 5.66699 -32.166 17 -44.499s27 -18.5 47 -18.5c20.667 0 36.667 6.16699 48 18.5s17 27.166 17 44.499s-5.66699 32.166 -17 44.499s-27.333 18.5 -48 18.5c-20 0 -35.667 -6.16699 -47 -18.5s-17 -27.166 -17 -44.499zM70 619
c0 -17.333 5.66699 -32.166 17 -44.499s27 -18.5 47 -18.5s35.667 6.16699 47 18.5s17 27.166 17 44.499s-5.66699 32.166 -17 44.499s-27 18.5 -47 18.5s-35.667 -6.16699 -47 -18.5s-17 -27.166 -17 -44.499z" />
    <glyph glyph-name="copyright" unicode="&#xa9;" horiz-adv-x="756" 
d="M30 333c0 -47.333 8.5 -92 25.5 -134s40.667 -78.667 71 -110s66.833 -56 109.5 -74s90 -27 142 -27s99.333 9 142 27s79.334 42.667 110.001 74s54.5 68 71.5 110s25.5 86.667 25.5 134s-8.5 92 -25.5 134s-40.833 78.667 -71.5 110s-67.334 56 -110.001 74
s-90 27 -142 27s-99.333 -9 -142 -27s-79.167 -42.667 -109.5 -74s-54 -68 -71 -110s-25.5 -86.667 -25.5 -134zM682 333c0 -40.667 -7.16699 -79.5 -21.5 -116.5s-34.833 -69.5 -61.5 -97.5s-58.667 -50.167 -96 -66.5s-79 -24.5 -125 -24.5s-87.667 8.16699 -125 24.5
s-69.166 38.5 -95.499 66.5s-46.666 60.5 -60.999 97.5s-21.5 75.833 -21.5 116.5s7.16699 79.5 21.5 116.5s34.666 69.5 60.999 97.5s58.166 50.167 95.499 66.5s79 24.5 125 24.5s87.667 -8.16699 125 -24.5s69.333 -38.5 96 -66.5s47.167 -60.5 61.5 -97.5
s21.5 -75.833 21.5 -116.5zM403 529c-32.667 0 -61.334 -4.83301 -86.001 -14.5s-45.334 -23 -62.001 -40s-29.334 -37.667 -38.001 -62s-13 -50.833 -13 -79.5c0 -29.333 4.33301 -56 13 -80s21.334 -44.5 38.001 -61.5s37.334 -30.333 62.001 -40
s53.334 -14.5 86.001 -14.5c19.333 0 38.833 2 58.5 6s36.167 9.33301 49.5 16l-14 65c-26.667 -10.667 -55 -16 -85 -16c-42.667 0 -74 11 -94 33s-30 52.667 -30 92s10 70 30 92s51.333 33 94 33c30 0 58.333 -5.33301 85 -16l14 65c-13.333 6.66699 -29.833 12 -49.5 16
s-39.167 6 -58.5 6z" />
    <glyph glyph-name="ordfeminine" unicode="&#xaa;" horiz-adv-x="377" 
d="M327 349l0.000976562 212.999c0 40.667 -11.667 69.834 -35 87.501s-57.333 26.5 -102 26.5c-24 0 -46.833 -2.33301 -68.5 -7s-41.5 -11.667 -59.5 -21l14 -68c16 7.33301 32.5 13.166 49.5 17.499s35.167 6.5 54.5 6.5c21.333 0 36.833 -3.33301 46.5 -10
s14.5 -18.667 14.5 -36v-18h-87c-36.667 0 -64.834 -8.16699 -84.501 -24.5s-29.5 -41.166 -29.5 -74.499c0 -30.667 8.66699 -54.667 26 -72s42.333 -26 75 -26c26 0 48 5.16699 66 15.5s30.667 22.833 38 37.5v-47h82zM241.001 466.999
c0 -19.333 -6.16797 -35.167 -18.501 -47.5s-29.166 -18.5 -50.499 -18.5c-17.333 0 -29.833 3.83301 -37.5 11.5s-11.5 17.167 -11.5 28.5c0 26 15.333 39 46 39h72v-13zM42 221.998h296v71h-296v-71z" />
    <glyph glyph-name="guillemotleft" unicode="&#xab;" horiz-adv-x="619" 
d="M580 452h-140l-158 -206l158 -206h140l-156 206zM321 452h-140l-157 -206l157 -206h140l-156 206z" />
    <glyph glyph-name="logicalnot" unicode="&#xac;" horiz-adv-x="546" 
d="M498 87v287h-450v-102h338v-185h112z" />
    <glyph glyph-name="registered" unicode="&#xae;" horiz-adv-x="520" 
d="M35 458c0 -29.333 5.33301 -57.333 16 -84s25.667 -50.167 45 -70.5s43 -36.5 71 -48.5s59 -18 93 -18s65 6 93 18s51.667 28.167 71 48.5s34.333 43.833 45 70.5s16 54.667 16 84c0 30 -5.33301 58.333 -16 85s-25.667 50 -45 70s-43 35.833 -71 47.5s-59 17.5 -93 17.5
s-65 -5.83301 -93 -17.5s-51.667 -27.5 -71 -47.5s-34.333 -43.333 -45 -70s-16 -55 -16 -85zM72 458c0 26 4.5 50.5 13.5 73.5s21.667 43 38 60s36 30.333 59 40s48.833 14.5 77.5 14.5c28 0 53.5 -4.83301 76.5 -14.5s42.667 -23 59 -40s29 -37 38 -60
s13.5 -47.5 13.5 -73.5s-4.5 -50.5 -13.5 -73.5s-21.667 -43 -38 -60s-36 -30.333 -59 -40s-48.5 -14.5 -76.5 -14.5c-28.667 0 -54.5 4.83301 -77.5 14.5s-42.667 23 -59 40s-29 37 -38 60s-13.5 47.5 -13.5 73.5zM350 506c0 20.667 -7.16699 36.6689 -21.5 48.002
s-33.833 17 -58.5 17h-86v-214h52v78h16l56 -78h62l-63 84c13.333 5.33301 23.833 13.666 31.5 24.999s11.5 24.666 11.5 39.999zM298 503.002c0 -9.33301 -3 -16.667 -9 -22s-14 -8 -24 -8h-29v59h29c10 0 18 -2.5 24 -7.5s9 -12.167 9 -21.5z" />
    <glyph glyph-name="macron" unicode="&#xaf;" horiz-adv-x="435" 
d="M365 565v93h-295v-93h295z" />
    <glyph glyph-name="degree" unicode="&#xb0;" horiz-adv-x="341" 
d="M37 547c0 -18 3 -34.8291 9 -50.4961s14.833 -29.334 26.5 -41.001s25.667 -20.834 42 -27.501s34.833 -10 55.5 -10c42 0 74.833 12.5 98.5 37.5s35.5 55.5 35.5 91.5s-11.833 66.5 -35.5 91.5s-56.5 37.5 -98.5 37.5c-20.667 0 -39.167 -3.33301 -55.5 -10
s-30.333 -15.834 -42 -27.501s-20.5 -25.334 -26.5 -41.001s-9 -32.5 -9 -50.5zM107 547.004c0 21.333 5.5 38.5 16.5 51.5s26.5 19.5 46.5 19.5s35.5 -6.5 46.5 -19.5s16.5 -30.167 16.5 -51.5s-5.5 -38.333 -16.5 -51s-26.5 -19 -46.5 -19s-35.5 6.33301 -46.5 19
s-16.5 29.667 -16.5 51z" />
    <glyph glyph-name="plusminus" unicode="&#xb1;" horiz-adv-x="546" 
d="M498 0v96h-169v164h169v101h-169v185h-112v-185h-169v-101h169v-164h-169v-96h450z" />
    <glyph glyph-name="twosuperior" unicode="&#xb2;" horiz-adv-x="360" 
d="M312 390l0.000976562 73.002h-176v2c0 6.66699 2.5 13 7.5 19s11.333 11.833 19 17.5s16.167 11.167 25.5 16.5l28 16l38.5 24c12.333 8 23.333 17.167 33 27.5s17.5 22.333 23.5 36s9 29.5 9 47.5c0 34 -11.5 60.167 -34.5 78.5s-56.167 27.5 -99.5 27.5
c-24.667 0 -48.334 -2.83301 -71.001 -8.5s-43 -13.5 -61 -23.5l21 -69c11.333 6.66699 25.333 12.834 42 18.501s34.667 8.5 54 8.5c18 0 32.167 -3 42.5 -9s15.5 -16 15.5 -30c0 -16.667 -7.83301 -30.334 -23.5 -41.001s-36.167 -23.334 -61.5 -38.001
c-15.333 -9.33301 -29.333 -18.333 -42 -27s-23.667 -18.834 -33 -30.501s-16.5 -25 -21.5 -40s-7.5 -33.5 -7.5 -55.5v-40h272z" />
    <glyph glyph-name="threesuperior" unicode="&#xb3;" horiz-adv-x="347" 
d="M307 497c0 44 -22.6592 72.332 -67.9922 84.999c42.667 18 64 49.667 64 95c0 29.333 -10.833 53 -32.5 71s-53.834 27 -96.501 27c-25.333 0 -48 -2.66699 -68 -8s-39.333 -13.333 -58 -24l22 -64c12.667 6 26.167 11.167 40.5 15.5s30.166 6.5 47.499 6.5
c15.333 0 28 -3 38 -9s15 -16 15 -30s-5.83301 -25 -17.5 -33s-28.834 -12 -51.501 -12h-53v-73h54c23.333 0 41.166 -3.33301 53.499 -10s18.5 -17.667 18.5 -33s-5.33301 -26.333 -16 -33s-25.667 -10 -45 -10c-16.667 0 -32.834 1.83301 -48.501 5.5
s-30.834 8.83398 -45.501 15.501l-20 -65c17.333 -8.66699 37.166 -15.667 59.499 -21s44.166 -8 65.499 -8c44.667 0 79.5 10.5 104.5 31.5s37.5 47.833 37.5 80.5z" />
    <glyph glyph-name="acute" unicode="&#xb4;" horiz-adv-x="349" 
d="M70 546h118l91 152h-155z" />
    <glyph glyph-name="mu" unicode="&#xb5;" horiz-adv-x="570" 
d="M65 484v-662h122v65c0 25.333 -3.66699 47.5 -11 66.5s-18.333 36.167 -33 51.5c9.33301 -5.33301 19.833 -9.16602 31.5 -11.499s23.834 -3.5 36.501 -3.5c21.333 0 40.666 2.83301 57.999 8.5s32.833 13 46.5 22s25.667 19.333 36 31s19.166 23.5 26.499 35.5
c2 -26.667 11.667 -49 29 -67s44 -27 80 -27c12.667 0 24.667 1 36 3s20.333 4.66699 27 8v73h-15c-20 0 -33 5.33301 -39 16s-9 25.667 -9 45v346h-122v-263c0 -40.667 -9 -71.834 -27 -93.501s-43.333 -32.5 -76 -32.5c-25.333 0 -44.166 7 -56.499 21
s-18.5 33.667 -18.5 59v309h-122z" />
    <glyph glyph-name="paragraph" unicode="&#xb6;" horiz-adv-x="552" 
d="M487 -140v806h-203c-38 0 -73 -5.66699 -105 -17s-59.5 -27.666 -82.5 -48.999s-40.833 -47.833 -53.5 -79.5s-19 -67.5 -19 -107.5c0 -39.333 6.33301 -74.5 19 -105.5s30.5 -57.333 53.5 -79s50.5 -38.334 82.5 -50.001s67 -17.5 105 -17.5v428h109v-729h94z" />
    <glyph glyph-name="periodcentered" unicode="&#xb7;" horiz-adv-x="268" 
d="M60 273c0 -22 6.83301 -39.833 20.5 -53.5s31.5 -20.5 53.5 -20.5s39.833 6.83301 53.5 20.5s20.5 31.5 20.5 53.5s-6.83301 39.833 -20.5 53.5s-31.5 20.5 -53.5 20.5s-39.833 -6.83301 -53.5 -20.5s-20.5 -31.5 -20.5 -53.5z" />
    <glyph glyph-name="cedilla" unicode="&#xb8;" horiz-adv-x="313" 
d="M244 -105c0 23.333 -8.99902 39.168 -26.999 47.501s-42 13.166 -72 14.499l8 43h-56l-20 -87c19.333 -1.33301 34.833 -3.16602 46.5 -5.49902s17.5 -8.5 17.5 -18.5c0 -5.33301 -2.16699 -9.66602 -6.5 -12.999s-10 -6 -17 -8s-14.667 -3.33301 -23 -4
s-16.5 -1 -24.5 -1l3 -51c22.667 0.666992 44.5 2.5 65.5 5.5s39.167 7.66699 54.5 14s27.666 14.666 36.999 24.999s14 23.166 14 38.499z" />
    <glyph glyph-name="onesuperior" unicode="&#xb9;" horiz-adv-x="245" 
d="M206 391v379h-77l-99 -20l7 -76l77 12v-295h92z" />
    <glyph glyph-name="ordmasculine" unicode="&#xba;" horiz-adv-x="387" 
d="M348 509c0 48.667 -13.001 88.668 -39.001 120.001s-64.333 47 -115 47c-25.333 0 -47.666 -4.16699 -66.999 -12.5s-35.5 -19.833 -48.5 -34.5s-22.667 -32.334 -29 -53.001s-9.5 -43 -9.5 -67c0 -48.667 12.833 -88.334 38.5 -119.001s64.167 -46 115.5 -46
s89.833 15.333 115.5 46s38.5 70.334 38.5 119.001zM260.999 509.001c0 -32 -5.16699 -56.333 -15.5 -73s-27.5 -25 -51.5 -25s-41.333 8.33301 -52 25s-16 41 -16 73s5.33301 56.333 16 73s28 25 52 25s41.167 -8.33301 51.5 -25s15.5 -41 15.5 -73zM51.999 222.001h283v71
h-283v-71z" />
    <glyph glyph-name="guillemotright" unicode="&#xbb;" horiz-adv-x="619" 
d="M438 452h-141l157 -206l-157 -206h141l157 206zM179 452h-140l156 -206l-156 -206h140l157 206z" />
    <glyph glyph-name="onequarter" unicode="&#xbc;" horiz-adv-x="792" 
d="M604 666h-103l-339 -666h103zM216 287v379h-77l-99 -20l7 -76l77 12v-295h92zM752 84v70h-46v226h-97l-171 -225v-71h180v-84h88v84h46zM618 154h-102l102 138v-138z" />
    <glyph glyph-name="onehalf" unicode="&#xbd;" horiz-adv-x="825" 
d="M604 666h-103l-339 -666h103zM216 287v379h-77l-99 -20l7 -76l77 12v-295h92zM777 0l-0.000976562 72.998h-176v2c0 6.66699 2.5 13 7.5 19s11.333 11.833 19 17.5s16.167 11.167 25.5 16.5l28 16l39 24.5c12.667 8.33301 23.834 17.833 33.501 28.5
s17.334 22.667 23.001 36s8.5 28.666 8.5 45.999c0 34 -11.5 60.167 -34.5 78.5s-56.167 27.5 -99.5 27.5c-24 0 -47.333 -2.83301 -70 -8.5s-43 -13.5 -61 -23.5l20 -69c11.333 6.66699 25.333 12.834 42 18.501s35 8.5 55 8.5c17.333 0 31.166 -3 41.499 -9
s15.5 -16 15.5 -30c0 -17.333 -7.83301 -31.166 -23.5 -41.499s-36.167 -22.833 -61.5 -37.5c-15.333 -8.66699 -29.333 -17.5 -42 -26.5s-23.5 -19.167 -32.5 -30.5s-16.167 -24.666 -21.5 -39.999s-8 -34 -8 -56v-40h272z" />
    <glyph glyph-name="threequarters" unicode="&#xbe;" horiz-adv-x="821" 
d="M307 393c0 44 -22.6592 72.332 -67.9922 84.999c42.667 18 64 49.667 64 95c0 29.333 -10.833 53 -32.5 71s-53.834 27 -96.501 27c-25.333 0 -48 -2.66699 -68 -8s-39.333 -13.333 -58 -24l22 -64c12.667 6 26.167 11.167 40.5 15.5s30.166 6.5 47.499 6.5
c15.333 0 28 -3 38 -9s15 -16 15 -30s-5.83301 -25 -17.5 -33s-28.834 -12 -51.501 -12h-53v-73h54c23.333 0 41.166 -3.33301 53.499 -10s18.5 -17.667 18.5 -33s-5.33301 -26.333 -16 -33s-25.667 -10 -45 -10c-16.667 0 -32.834 1.83301 -48.501 5.5
s-30.834 8.83398 -45.501 15.501l-20 -65c17.333 -8.66699 37.166 -15.667 59.499 -21s44.166 -8 65.499 -8c44.667 0 79.5 10.5 104.5 31.5s37.5 47.833 37.5 80.5zM633.008 665.999h-103l-338 -666h103zM782.008 83.999v70h-47v226h-97l-171 -225v-71h180v-84h88v84h47z
M647.008 153.999h-101l101 138v-138z" />
    <glyph glyph-name="questiondown" unicode="&#xbf;" horiz-adv-x="465" 
d="M359 421c0 21.333 -6.83301 38.833 -20.5 52.5s-31.834 20.5 -54.501 20.5c-22 0 -39.833 -6.83301 -53.5 -20.5s-20.5 -31.167 -20.5 -52.5c0 -22 6.83301 -39.833 20.5 -53.5s31.5 -20.5 53.5 -20.5c22.667 0 40.834 6.83301 54.501 20.5s20.5 31.5 20.5 53.5zM40 -31
c0 -54 18.3271 -93.667 54.9941 -119s86.667 -38 150 -38c34.667 0 68.834 4.16699 102.501 12.5s61.167 18.166 82.5 29.499l-21 92c-21.333 -9.33301 -45.166 -17.666 -71.499 -24.999s-52.166 -11 -77.499 -11c-28 0 -51.333 4.5 -70 13.5s-28 26.167 -28 51.5
c0 11.333 2 21.166 6 29.499s9.83301 16.5 17.5 24.5s16.834 16.333 27.501 25l37 30c14 11.333 26.333 22.5 37 33.5s19.834 22.833 27.501 35.5s13.5 26.834 17.5 42.501s6 34.167 6 55.5v42h-108v-25c0 -14 -1.5 -26 -4.5 -36s-7.5 -19.333 -13.5 -28
s-13.5 -16.834 -22.5 -24.501l-30.5 -25.5l-50 -42.5c-14.667 -13 -27.167 -26.667 -37.5 -41s-18.166 -29.666 -23.499 -45.999s-8 -34.833 -8 -55.5z" />
    <glyph glyph-name="Agrave" unicode="&#xc0;" horiz-adv-x="645" 
d="M9 0h127l53 157h267l53 -157h127l-244 666h-139zM323 554l98 -292h-197zM375 727l-77 132h-165l122 -132h120z" />
    <glyph glyph-name="Aacute" unicode="&#xc1;" horiz-adv-x="645" 
d="M9 0h127l53 157h267l53 -157h127l-244 666h-139zM323 554l98 -292h-197zM511 859h-165l-77 -132h119z" />
    <glyph glyph-name="Acircumflex" unicode="&#xc2;" horiz-adv-x="645" 
d="M9 0h127l53 157h267l53 -157h127l-244 666h-139zM323 554l98 -292h-197zM380 859h-115l-115 -132h116l57 67l57 -67h117z" />
    <glyph glyph-name="Atilde" unicode="&#xc3;" horiz-adv-x="645" 
d="M9 0h127l53 157h267l53 -157h127l-244 666h-139zM323 554l98 -292h-197zM435 868c-2 -4.66699 -3.99707 -9.66797 -5.99707 -15.001s-4.5 -10.166 -7.5 -14.499s-6.66699 -8 -11 -11s-9.83301 -4.5 -16.5 -4.5c-8 0 -17.5 2.16699 -28.5 6.5s-22.833 9.33301 -35.5 15
s-25.5 10.667 -38.5 15s-25.833 6.5 -38.5 6.5c-32.667 0 -57.334 -9 -74.001 -27s-30.334 -45 -41.001 -81l80 -29c5.33301 12.667 10.666 23.5 15.999 32.5s14.666 13.5 27.999 13.5c9.33301 0 20.333 -2.33301 33 -7l39 -15c13.333 -5.33301 26.833 -10.333 40.5 -15
s26.167 -7 37.5 -7c14.667 0 27.5 3 38.5 9s20.333 14 28 24s14.334 21.5 20.001 34.5s10.5 26.5 14.5 40.5z" />
    <glyph glyph-name="Adieresis" unicode="&#xc4;" horiz-adv-x="645" 
d="M9 0h127l53 157h267l53 -157h127l-244 666h-139zM323 554l98 -292h-197zM359 793c0 -18 5.66699 -32.667 17 -44s27.333 -17 48 -17s36.5 5.66699 47.5 17s16.5 26 16.5 44c0 18.667 -5.5 33.667 -16.5 45s-26.833 17 -47.5 17s-36.667 -5.66699 -48 -17
s-17 -26.333 -17 -45zM157 793c0 -18 5.5 -32.667 16.5 -44s26.833 -17 47.5 -17s36.5 5.66699 47.5 17s16.5 26 16.5 44c0 18.667 -5.5 33.667 -16.5 45s-26.833 17 -47.5 17s-36.5 -5.66699 -47.5 -17s-16.5 -26.333 -16.5 -45z" />
    <glyph glyph-name="Aring" unicode="&#xc5;" horiz-adv-x="645" 
d="M422 725c0 23.333 -8 43.666 -24 60.999s-41 26 -75 26s-59.167 -8.66699 -75.5 -26s-24.5 -37.666 -24.5 -60.999c0 -26.667 9.33301 -47.334 28 -62.001l-242 -663h127l53 157h267l53 -157h127l-243 663c9.33301 7.33301 16.5 16.333 21.5 27s7.5 22.334 7.5 35.001z
M279 725c0 13.333 4 23.668 12 31.001s18.667 11 32 11c28.667 0 43 -14 43 -42s-14.333 -42 -43 -42c-13.333 0 -24 3.66699 -32 11s-12 17.666 -12 30.999zM323 554.002l98 -292h-197z" />
    <glyph glyph-name="AE" unicode="&#xc6;" horiz-adv-x="869" 
d="M823 666h-570l-244 -666h127l54 159h265l54 -159h314v108h-234l-59 180h272v108h-307l-54 162h382v108zM323 563l98 -301h-197z" />
    <glyph glyph-name="Ccedilla" unicode="&#xc7;" horiz-adv-x="587" 
d="M463 -105c0 23.333 -8.99902 39.1689 -26.999 47.502s-42 13.166 -72 14.499l6 31c40.667 0.666992 76.834 4.66699 108.501 12s57.5 15.666 77.5 24.999l-19 99c-20.667 -8 -44 -14.667 -70 -20s-50.667 -8 -74 -8c-75.333 0 -133 19.833 -173 59.5
s-60 98.834 -60 177.501s20 137.834 60 177.501s97.667 59.5 173 59.5c23.333 0 48 -2.66699 74 -8s49.333 -12 70 -20l19 99c-20 9.33301 -46.167 17.833 -78.5 25.5s-69.5 11.5 -111.5 11.5c-50 0 -95.333 -8 -136 -24s-75.5 -38.833 -104.5 -68.5
s-51.333 -65.834 -67 -108.501s-23.5 -90.667 -23.5 -144c0 -48.667 6.5 -92.834 19.5 -132.501s31.667 -74.167 56 -103.5s53.666 -53 87.999 -71s72.833 -29.667 115.5 -35l-18 -78c19.333 -1.33301 34.833 -3.16602 46.5 -5.49902s17.5 -8.5 17.5 -18.5
c0 -5.33301 -2.16699 -9.66602 -6.5 -12.999s-10 -6 -17 -8s-14.667 -3.33301 -23 -4s-16.5 -1 -24.5 -1l3 -51c22.667 0.666992 44.5 2.5 65.5 5.5s39.167 7.66699 54.5 14s27.666 14.666 36.999 24.999s14 23.166 14 38.499z" />
    <glyph glyph-name="Egrave" unicode="&#xc8;" horiz-adv-x="564" 
d="M376 727l-77 132h-165l122 -132h120zM70 0h448v108h-323v180h302v108h-302v162h323v108h-448v-666z" />
    <glyph glyph-name="Eacute" unicode="&#xc9;" horiz-adv-x="564" 
d="M70 0h448v108h-323v180h302v108h-302v162h323v108h-448v-666zM461 859h-165l-77 -132h119z" />
    <glyph glyph-name="Ecircumflex" unicode="&#xca;" horiz-adv-x="564" 
d="M356 859h-115l-115 -132h116l57 67l57 -67h117zM70 0h448v108h-323v180h302v108h-302v162h323v108h-448v-666z" />
    <glyph glyph-name="Edieresis" unicode="&#xcb;" horiz-adv-x="564" 
d="M70 0h448v108h-323v180h302v108h-302v162h323v108h-448v-666zM337 793c0 -18 5.66699 -32.667 17 -44s27.333 -17 48 -17s36.5 5.66699 47.5 17s16.5 26 16.5 44c0 18.667 -5.5 33.667 -16.5 45s-26.833 17 -47.5 17s-36.667 -5.66699 -48 -17s-17 -26.333 -17 -45z
M135 793c0 -18 5.5 -32.667 16.5 -44s26.833 -17 47.5 -17s36.5 5.66699 47.5 17s16.5 26 16.5 44c0 18.667 -5.5 33.667 -16.5 45s-26.833 17 -47.5 17s-36.5 -5.66699 -47.5 -17s-16.5 -26.333 -16.5 -45z" />
    <glyph glyph-name="Igrave" unicode="&#xcc;" horiz-adv-x="275" 
d="M75 0h125v666h-125v-666zM198 727l-77 132h-165l122 -132h120z" />
    <glyph glyph-name="Iacute" unicode="&#xcd;" horiz-adv-x="275" 
d="M75 0h125v666h-125v-666zM322 859h-165l-77 -132h119z" />
    <glyph glyph-name="Icircumflex" unicode="&#xce;" horiz-adv-x="275" 
d="M75 0h125v666h-125v-666zM196 859h-115l-115 -132h116l57 67l57 -67h117z" />
    <glyph glyph-name="Idieresis" unicode="&#xcf;" horiz-adv-x="275" 
d="M75 0h125v666h-125v-666zM176 793c0 -18 5.66699 -32.667 17 -44s27.333 -17 48 -17s36.5 5.66699 47.5 17s16.5 26 16.5 44c0 18.667 -5.5 33.667 -16.5 45s-26.833 17 -47.5 17s-36.667 -5.66699 -48 -17s-17 -26.333 -17 -45zM-26 793c0 -18 5.5 -32.667 16.5 -44
s26.833 -17 47.5 -17s36.5 5.66699 47.5 17s16.5 26 16.5 44c0 18.667 -5.5 33.667 -16.5 45s-26.833 17 -47.5 17s-36.5 -5.66699 -47.5 -17s-16.5 -26.333 -16.5 -45z" />
    <glyph glyph-name="Eth" unicode="&#xd0;" horiz-adv-x="693" 
d="M21 280h64v-280h249c48.667 0 93.167 8 133.5 24s75 38.667 104 68s51.333 64.5 67 105.5s23.5 86.167 23.5 135.5s-7.83301 94.5 -23.5 135.5s-38 76.167 -67 105.5s-63.667 52 -104 68s-84.833 24 -133.5 24h-249v-280h-64v-106zM536 333
c0 -38 -5.5 -71.167 -16.5 -99.5s-25.833 -51.833 -44.5 -70.5s-40.667 -32.667 -66 -42s-52.333 -14 -81 -14h-118v173h179v106h-179v173h118c28.667 0 55.667 -4.66699 81 -14s47.333 -23.333 66 -42s33.5 -42.167 44.5 -70.5s16.5 -61.5 16.5 -99.5z" />
    <glyph glyph-name="Ntilde" unicode="&#xd1;" horiz-adv-x="707" 
d="M462 868c-2 -4.66699 -3.99707 -9.66797 -5.99707 -15.001s-4.5 -10.166 -7.5 -14.499s-6.66699 -8 -11 -11s-9.83301 -4.5 -16.5 -4.5c-8 0 -17.5 2.16699 -28.5 6.5s-22.833 9.33301 -35.5 15s-25.5 10.667 -38.5 15s-25.833 6.5 -38.5 6.5
c-32.667 0 -57.334 -9 -74.001 -27s-30.334 -45 -41.001 -81l80 -29c5.33301 12.667 10.666 23.5 15.999 32.5s14.666 13.5 27.999 13.5c9.33301 0 20.333 -2.33301 33 -7l39 -15c13.333 -5.33301 26.833 -10.333 40.5 -15s26.167 -7 37.5 -7c14.667 0 27.5 3 38.5 9
s20.333 14 28 24s14.334 21.5 20.001 34.5s10.5 26.5 14.5 40.5zM70.0029 -0.000976562h121v459l322 -459h124v666h-122v-459l-321 459h-124v-666z" />
    <glyph glyph-name="Ograve" unicode="&#xd2;" 
d="M412 727l-77 132h-165l122 -132h120zM35 333c0 -49.333 6.33301 -95 19 -137s32 -78.333 58 -109s58.5 -54.834 97.5 -72.501s85.167 -26.5 138.5 -26.5c52.667 0 98.667 8.83301 138 26.5s72 41.834 98 72.501s45.333 67 58 109s19 87.667 19 137
c0 48.667 -6.33301 94.167 -19 136.5s-32 78.833 -58 109.5s-58.667 54.834 -98 72.501s-85.333 26.5 -138 26.5c-53.333 0 -99.5 -8.83301 -138.5 -26.5s-71.5 -41.834 -97.5 -72.501s-45.333 -67.167 -58 -109.5s-19 -87.833 -19 -136.5zM348 95
c-32.667 0 -60.834 5.83301 -84.501 17.5s-43.167 28 -58.5 49s-26.666 46 -33.999 75s-11 61.167 -11 96.5c0 34.667 3.66699 66.667 11 96s18.666 54.5 33.999 75.5s34.833 37.333 58.5 49s51.834 17.5 84.501 17.5s60.834 -5.83301 84.501 -17.5s43.167 -28 58.5 -49
s26.666 -46.167 33.999 -75.5s11 -61.333 11 -96c0 -35.333 -3.66699 -67.5 -11 -96.5s-18.666 -54 -33.999 -75s-34.833 -37.333 -58.5 -49s-51.834 -17.5 -84.501 -17.5z" />
    <glyph glyph-name="Oacute" unicode="&#xd3;" 
d="M524 859h-165l-77 -132h119zM35 333c0 -49.333 6.33301 -95 19 -137s32 -78.333 58 -109s58.5 -54.834 97.5 -72.501s85.167 -26.5 138.5 -26.5c52.667 0 98.667 8.83301 138 26.5s72 41.834 98 72.501s45.333 67 58 109s19 87.667 19 137
c0 48.667 -6.33301 94.167 -19 136.5s-32 78.833 -58 109.5s-58.667 54.834 -98 72.501s-85.333 26.5 -138 26.5c-53.333 0 -99.5 -8.83301 -138.5 -26.5s-71.5 -41.834 -97.5 -72.501s-45.333 -67.167 -58 -109.5s-19 -87.833 -19 -136.5zM348 95
c-32.667 0 -60.834 5.83301 -84.501 17.5s-43.167 28 -58.5 49s-26.666 46 -33.999 75s-11 61.167 -11 96.5c0 34.667 3.66699 66.667 11 96s18.666 54.5 33.999 75.5s34.833 37.333 58.5 49s51.834 17.5 84.501 17.5s60.834 -5.83301 84.501 -17.5s43.167 -28 58.5 -49
s26.666 -46.167 33.999 -75.5s11 -61.333 11 -96c0 -35.333 -3.66699 -67.5 -11 -96.5s-18.666 -54 -33.999 -75s-34.833 -37.333 -58.5 -49s-51.834 -17.5 -84.501 -17.5z" />
    <glyph glyph-name="Ocircumflex" unicode="&#xd4;" 
d="M405 859h-115l-115 -132h116l57 67l57 -67h117zM35 333c0 -49.333 6.33301 -95 19 -137s32 -78.333 58 -109s58.5 -54.834 97.5 -72.501s85.167 -26.5 138.5 -26.5c52.667 0 98.667 8.83301 138 26.5s72 41.834 98 72.501s45.333 67 58 109s19 87.667 19 137
c0 48.667 -6.33301 94.167 -19 136.5s-32 78.833 -58 109.5s-58.667 54.834 -98 72.501s-85.333 26.5 -138 26.5c-53.333 0 -99.5 -8.83301 -138.5 -26.5s-71.5 -41.834 -97.5 -72.501s-45.333 -67.167 -58 -109.5s-19 -87.833 -19 -136.5zM348 95
c-32.667 0 -60.834 5.83301 -84.501 17.5s-43.167 28 -58.5 49s-26.666 46 -33.999 75s-11 61.167 -11 96.5c0 34.667 3.66699 66.667 11 96s18.666 54.5 33.999 75.5s34.833 37.333 58.5 49s51.834 17.5 84.501 17.5s60.834 -5.83301 84.501 -17.5s43.167 -28 58.5 -49
s26.666 -46.167 33.999 -75.5s11 -61.333 11 -96c0 -35.333 -3.66699 -67.5 -11 -96.5s-18.666 -54 -33.999 -75s-34.833 -37.333 -58.5 -49s-51.834 -17.5 -84.501 -17.5z" />
    <glyph glyph-name="Otilde" unicode="&#xd5;" 
d="M35 333c0 -49.333 6.33301 -95 19 -137s32 -78.333 58 -109s58.5 -54.834 97.5 -72.501s85.167 -26.5 138.5 -26.5c52.667 0 98.667 8.83301 138 26.5s72 41.834 98 72.501s45.333 67 58 109s19 87.667 19 137c0 48.667 -6.33301 94.167 -19 136.5s-32 78.833 -58 109.5
s-58.667 54.834 -98 72.501s-85.333 26.5 -138 26.5c-53.333 0 -99.5 -8.83301 -138.5 -26.5s-71.5 -41.834 -97.5 -72.501s-45.333 -67.167 -58 -109.5s-19 -87.833 -19 -136.5zM348 95c-32.667 0 -60.834 5.83301 -84.501 17.5s-43.167 28 -58.5 49s-26.666 46 -33.999 75
s-11 61.167 -11 96.5c0 34.667 3.66699 66.667 11 96s18.666 54.5 33.999 75.5s34.833 37.333 58.5 49s51.834 17.5 84.501 17.5s60.834 -5.83301 84.501 -17.5s43.167 -28 58.5 -49s26.666 -46.167 33.999 -75.5s11 -61.333 11 -96c0 -35.333 -3.66699 -67.5 -11 -96.5
s-18.666 -54 -33.999 -75s-34.833 -37.333 -58.5 -49s-51.834 -17.5 -84.501 -17.5zM456 868c-2 -4.66699 -3.99707 -9.66797 -5.99707 -15.001s-4.5 -10.166 -7.5 -14.499s-6.66699 -8 -11 -11s-9.83301 -4.5 -16.5 -4.5c-8 0 -17.5 2.16699 -28.5 6.5
s-22.833 9.33301 -35.5 15s-25.5 10.667 -38.5 15s-25.833 6.5 -38.5 6.5c-32.667 0 -57.334 -9 -74.001 -27s-30.334 -45 -41.001 -81l80 -29c5.33301 12.667 10.666 23.5 15.999 32.5s14.666 13.5 27.999 13.5c9.33301 0 20.333 -2.33301 33 -7l39 -15
c13.333 -5.33301 26.833 -10.333 40.5 -15s26.167 -7 37.5 -7c14.667 0 27.5 3 38.5 9s20.333 14 28 24s14.334 21.5 20.001 34.5s10.5 26.5 14.5 40.5z" />
    <glyph glyph-name="Odieresis" unicode="&#xd6;" 
d="M35 333c0 -49.333 6.33301 -95 19 -137s32 -78.333 58 -109s58.5 -54.834 97.5 -72.501s85.167 -26.5 138.5 -26.5c52.667 0 98.667 8.83301 138 26.5s72 41.834 98 72.501s45.333 67 58 109s19 87.667 19 137c0 48.667 -6.33301 94.167 -19 136.5s-32 78.833 -58 109.5
s-58.667 54.834 -98 72.501s-85.333 26.5 -138 26.5c-53.333 0 -99.5 -8.83301 -138.5 -26.5s-71.5 -41.834 -97.5 -72.501s-45.333 -67.167 -58 -109.5s-19 -87.833 -19 -136.5zM348 95c-32.667 0 -60.834 5.83301 -84.501 17.5s-43.167 28 -58.5 49s-26.666 46 -33.999 75
s-11 61.167 -11 96.5c0 34.667 3.66699 66.667 11 96s18.666 54.5 33.999 75.5s34.833 37.333 58.5 49s51.834 17.5 84.501 17.5s60.834 -5.83301 84.501 -17.5s43.167 -28 58.5 -49s26.666 -46.167 33.999 -75.5s11 -61.333 11 -96c0 -35.333 -3.66699 -67.5 -11 -96.5
s-18.666 -54 -33.999 -75s-34.833 -37.333 -58.5 -49s-51.834 -17.5 -84.501 -17.5zM385 793c0 -18 5.66699 -32.667 17 -44s27.333 -17 48 -17s36.5 5.66699 47.5 17s16.5 26 16.5 44c0 18.667 -5.5 33.667 -16.5 45s-26.833 17 -47.5 17s-36.667 -5.66699 -48 -17
s-17 -26.333 -17 -45zM183 793c0 -18 5.5 -32.667 16.5 -44s26.833 -17 47.5 -17s36.5 5.66699 47.5 17s16.5 26 16.5 44c0 18.667 -5.5 33.667 -16.5 45s-26.833 17 -47.5 17s-36.5 -5.66699 -47.5 -17s-16.5 -26.333 -16.5 -45z" />
    <glyph glyph-name="multiply" unicode="&#xd7;" horiz-adv-x="539" 
d="M417 101l74 75l-148 147l148 147l-75 74l-147 -147l-147 148l-74 -75l148 -147l-148 -147l75 -74l146 147z" />
    <glyph glyph-name="Oslash" unicode="&#xd8;" 
d="M35 333c0 -68 12 -128.667 36 -182s61 -94.333 111 -123l-45 -112h84l33 83c14.667 -3.33301 29.667 -6 45 -8s31.666 -3 48.999 -3c52.667 0 98.667 8.83301 138 26.5s72 41.834 98 72.501s45.333 67 58 109s19 87.667 19 137c0 68 -12 128.5 -36 181.5
s-61 93.833 -111 122.5l46 113h-84l-34 -83c-14.667 3.33301 -29.667 6 -45 8s-31.666 3 -48.999 3c-53.333 0 -99.5 -8.83301 -138.5 -26.5s-71.5 -41.834 -97.5 -72.501s-45.333 -67.167 -58 -109.5s-19 -87.833 -19 -136.5zM160 333c0 34.667 3.66699 66.665 11 95.998
s18.666 54.5 33.999 75.5s34.833 37.333 58.5 49s51.834 17.5 84.501 17.5c9.33301 0 18.333 -0.666992 27 -2s17 -3 25 -5l-173 -427c-23.333 20.667 -40.333 47.834 -51 81.501s-16 71.834 -16 114.501zM348 94.998c-18.667 0 -36 1.99902 -52 5.99902l173 427
c23.333 -21.333 40.333 -48.666 51 -81.999s16 -71 16 -113c0 -35.333 -3.66699 -67.5 -11 -96.5s-18.666 -54 -33.999 -75s-34.833 -37.333 -58.5 -49s-51.834 -17.5 -84.501 -17.5z" />
    <glyph glyph-name="Ugrave" unicode="&#xd9;" horiz-adv-x="683" 
d="M418 727l-77 132h-165l122 -132h120zM616 666h-126v-426c0 -46.667 -13.333 -82.5 -40 -107.5s-62.667 -37.5 -108 -37.5c-46 0 -82.333 12.5 -109 37.5s-40 60.833 -40 107.5v426h-125v-419c0 -35.333 5.66699 -68.666 17 -99.999s28.333 -58.666 51 -81.999
s51.167 -42 85.5 -56s74.5 -21 120.5 -21s86.167 7 120.5 21s62.833 32.667 85.5 56s39.667 50.666 51 81.999s17 64.666 17 99.999v419z" />
    <glyph glyph-name="Uacute" unicode="&#xda;" horiz-adv-x="683" 
d="M616 666h-126v-426c0 -46.667 -13.333 -82.5 -40 -107.5s-62.667 -37.5 -108 -37.5c-46 0 -82.333 12.5 -109 37.5s-40 60.833 -40 107.5v426h-125v-419c0 -35.333 5.66699 -68.666 17 -99.999s28.333 -58.666 51 -81.999s51.167 -42 85.5 -56s74.5 -21 120.5 -21
s86.167 7 120.5 21s62.833 32.667 85.5 56s39.667 50.666 51 81.999s17 64.666 17 99.999v419zM506 859h-165l-77 -132h119z" />
    <glyph glyph-name="Ucircumflex" unicode="&#xdb;" horiz-adv-x="683" 
d="M399 859h-115l-115 -132h116l57 67l57 -67h117zM616 666h-126v-426c0 -46.667 -13.333 -82.5 -40 -107.5s-62.667 -37.5 -108 -37.5c-46 0 -82.333 12.5 -109 37.5s-40 60.833 -40 107.5v426h-125v-419c0 -35.333 5.66699 -68.666 17 -99.999s28.333 -58.666 51 -81.999
s51.167 -42 85.5 -56s74.5 -21 120.5 -21s86.167 7 120.5 21s62.833 32.667 85.5 56s39.667 50.666 51 81.999s17 64.666 17 99.999v419z" />
    <glyph glyph-name="Udieresis" unicode="&#xdc;" horiz-adv-x="683" 
d="M616 666h-126v-426c0 -46.667 -13.333 -82.5 -40 -107.5s-62.667 -37.5 -108 -37.5c-46 0 -82.333 12.5 -109 37.5s-40 60.833 -40 107.5v426h-125v-419c0 -35.333 5.66699 -68.666 17 -99.999s28.333 -58.666 51 -81.999s51.167 -42 85.5 -56s74.5 -21 120.5 -21
s86.167 7 120.5 21s62.833 32.667 85.5 56s39.667 50.666 51 81.999s17 64.666 17 99.999v419zM378 793c0 -18 5.66699 -32.667 17 -44s27.333 -17 48 -17s36.5 5.66699 47.5 17s16.5 26 16.5 44c0 18.667 -5.5 33.667 -16.5 45s-26.833 17 -47.5 17
s-36.667 -5.66699 -48 -17s-17 -26.333 -17 -45zM176 793c0 -18 5.5 -32.667 16.5 -44s26.833 -17 47.5 -17s36.5 5.66699 47.5 17s16.5 26 16.5 44c0 18.667 -5.5 33.667 -16.5 45s-26.833 17 -47.5 17s-36.5 -5.66699 -47.5 -17s-16.5 -26.333 -16.5 -45z" />
    <glyph glyph-name="Yacute" unicode="&#xdd;" horiz-adv-x="559" 
d="M557 666h-132l-146 -293l-145 293h-132l215 -403v-263h125v263zM453 859h-165l-77 -132h119z" />
    <glyph glyph-name="Thorn" unicode="&#xde;" horiz-adv-x="602" 
d="M579 339c0 30 -4.99902 57.833 -14.999 83.5s-24.5 48 -43.5 67s-42 33.833 -69 44.5s-57.833 16 -92.5 16h-164v116h-125v-666h125v126h164c33.333 0 63.666 5.5 90.999 16.5s50.5 26.167 69.5 45.5s33.667 42 44 68s15.5 53.667 15.5 83zM454.001 339
c0 -35.333 -10 -62.833 -30 -82.5s-47 -29.5 -81 -29.5h-148v222h147c34 0 61.167 -9.5 81.5 -28.5s30.5 -46.167 30.5 -81.5z" />
    <glyph glyph-name="germandbls" unicode="&#xdf;" horiz-adv-x="577" 
d="M182 0l-0.00195312 432c0 48 9.33301 85.167 28 111.5s47.334 39.5 86.001 39.5c20.667 0 37.5 -5.5 50.5 -16.5s19.5 -25.167 19.5 -42.5c0 -18 -4.83301 -33.667 -14.5 -47s-20.167 -27 -31.5 -41c-14.667 -18.667 -27.167 -38 -37.5 -58s-15.5 -42 -15.5 -66
c0 -31.333 8.66699 -57 26 -77s44 -37.667 80 -53c20 -8.66699 36.167 -16.834 48.5 -24.501s18.5 -18.167 18.5 -31.5c0 -16 -6.5 -27.833 -19.5 -35.5s-30.167 -11.5 -51.5 -11.5c-14.667 0 -30.5 1.66699 -47.5 5s-32.5 7.66602 -46.5 12.999l-17 -84
c18 -7.33301 38.333 -13 61 -17s44.667 -6 66 -6c54 0 96.333 13 127 39s46 60.667 46 104c0 18 -2.66699 33.833 -8 47.5s-12.833 25.5 -22.5 35.5s-21 19 -34 27s-27.167 15.667 -42.5 23c-19.333 9.33301 -35 17.833 -47 25.5s-18 18.167 -18 31.5
c0 15.333 5.83301 29.833 17.5 43.5s23.5 28.5 35.5 44.5c11.333 15.333 22 32.833 32 52.5s15 42.834 15 69.501c0 22.667 -4.66699 42.834 -14 60.501s-22.166 32.667 -38.499 45s-35.5 21.666 -57.5 27.999s-46 9.5 -72 9.5c-74.667 0 -133.667 -20.667 -177 -62
s-65 -101.666 -65 -180.999v-433h120z" />
    <glyph glyph-name="agrave" unicode="&#xe0;" horiz-adv-x="529" 
d="M472 0l0.000976562 325c0 58.667 -17.167 101.5 -51.5 128.5s-85.5 40.5 -153.5 40.5c-36 0 -70.167 -3.83301 -102.5 -11.5s-61.5 -18.167 -87.5 -31.5l20 -95c22.667 10.667 46.5 19.167 71.5 25.5s52.5 9.5 82.5 9.5c66 0 99 -24 99 -72v-31h-135
c-24.667 0 -47.5 -2.83301 -68.5 -8.5s-39.167 -14.5 -54.5 -26.5s-27.333 -27.667 -36 -47s-13 -43 -13 -71c0 -45.333 13.167 -80.833 39.5 -106.5s63.5 -38.5 111.5 -38.5c35.333 0 67.166 7 95.499 21s50.5 32.667 66.5 56v-67h116zM350.001 173
c0 -29.333 -10.333 -53 -31 -71s-48 -27 -82 -27c-49.333 0 -74 21.333 -74 64s24.667 64 74 64h113v-30zM218.001 546h118l-54 152h-155z" />
    <glyph glyph-name="aacute" unicode="&#xe1;" horiz-adv-x="529" 
d="M472 0l0.000976562 325c0 58.667 -17.167 101.5 -51.5 128.5s-85.5 40.5 -153.5 40.5c-36 0 -70.167 -3.83301 -102.5 -11.5s-61.5 -18.167 -87.5 -31.5l20 -95c22.667 10.667 46.5 19.167 71.5 25.5s52.5 9.5 82.5 9.5c66 0 99 -24 99 -72v-31h-135
c-24.667 0 -47.5 -2.83301 -68.5 -8.5s-39.167 -14.5 -54.5 -26.5s-27.333 -27.667 -36 -47s-13 -43 -13 -71c0 -45.333 13.167 -80.833 39.5 -106.5s63.5 -38.5 111.5 -38.5c35.333 0 67.166 7 95.499 21s50.5 32.667 66.5 56v-67h116zM350.001 173
c0 -29.333 -10.333 -53 -31 -71s-48 -27 -82 -27c-49.333 0 -74 21.333 -74 64s24.667 64 74 64h113v-30zM205.001 546h118l91 152h-155z" />
    <glyph glyph-name="acircumflex" unicode="&#xe2;" horiz-adv-x="529" 
d="M472 0l0.000976562 325c0 58.667 -17.167 101.5 -51.5 128.5s-85.5 40.5 -153.5 40.5c-36 0 -70.167 -3.83301 -102.5 -11.5s-61.5 -18.167 -87.5 -31.5l20 -95c22.667 10.667 46.5 19.167 71.5 25.5s52.5 9.5 82.5 9.5c66 0 99 -24 99 -72v-31h-135
c-24.667 0 -47.5 -2.83301 -68.5 -8.5s-39.167 -14.5 -54.5 -26.5s-27.333 -27.667 -36 -47s-13 -43 -13 -71c0 -45.333 13.167 -80.833 39.5 -106.5s63.5 -38.5 111.5 -38.5c35.333 0 67.166 7 95.499 21s50.5 32.667 66.5 56v-67h116zM350.001 173
c0 -29.333 -10.333 -53 -31 -71s-48 -27 -82 -27c-49.333 0 -74 21.333 -74 64s24.667 64 74 64h113v-30zM333.001 698h-120l-104 -152h111l53 82l53 -82h112z" />
    <glyph glyph-name="atilde" unicode="&#xe3;" horiz-adv-x="529" 
d="M472 0l0.000976562 325c0 58.667 -17.167 101.5 -51.5 128.5s-85.5 40.5 -153.5 40.5c-36 0 -70.167 -3.83301 -102.5 -11.5s-61.5 -18.167 -87.5 -31.5l20 -95c22.667 10.667 46.5 19.167 71.5 25.5s52.5 9.5 82.5 9.5c66 0 99 -24 99 -72v-31h-135
c-24.667 0 -47.5 -2.83301 -68.5 -8.5s-39.167 -14.5 -54.5 -26.5s-27.333 -27.667 -36 -47s-13 -43 -13 -71c0 -45.333 13.167 -80.833 39.5 -106.5s63.5 -38.5 111.5 -38.5c35.333 0 67.166 7 95.499 21s50.5 32.667 66.5 56v-67h116zM350.001 173
c0 -29.333 -10.333 -53 -31 -71s-48 -27 -82 -27c-49.333 0 -74 21.333 -74 64s24.667 64 74 64h113v-30zM380.001 689c-1.33301 -4 -2.99707 -8.49805 -4.99707 -13.498s-4.33301 -9.83301 -7 -14.5s-6.16699 -8.5 -10.5 -11.5s-9.83301 -4.5 -16.5 -4.5
c-8 0 -17.167 2.16699 -27.5 6.5s-21.5 9.33301 -33.5 15s-24.5 10.667 -37.5 15s-25.5 6.5 -37.5 6.5c-32 0 -55.5 -9 -70.5 -27s-28.167 -45 -39.5 -81l77 -29c4.66699 12.667 9.83398 23.5 15.501 32.5s15.167 13.5 28.5 13.5c9.33301 0 19.666 -2.33301 30.999 -7
s23.166 -9.83398 35.499 -15.501s24.666 -10.834 36.999 -15.501s24.166 -7 35.499 -7c16 0 29.5 2.83301 40.5 8.5s20.333 13.5 28 23.5s14.167 21.5 19.5 34.5s10.333 27.167 15 42.5z" />
    <glyph glyph-name="adieresis" unicode="&#xe4;" horiz-adv-x="529" 
d="M472 0l0.000976562 325c0 58.667 -17.167 101.5 -51.5 128.5s-85.5 40.5 -153.5 40.5c-36 0 -70.167 -3.83301 -102.5 -11.5s-61.5 -18.167 -87.5 -31.5l20 -95c22.667 10.667 46.5 19.167 71.5 25.5s52.5 9.5 82.5 9.5c66 0 99 -24 99 -72v-31h-135
c-24.667 0 -47.5 -2.83301 -68.5 -8.5s-39.167 -14.5 -54.5 -26.5s-27.333 -27.667 -36 -47s-13 -43 -13 -71c0 -45.333 13.167 -80.833 39.5 -106.5s63.5 -38.5 111.5 -38.5c35.333 0 67.166 7 95.499 21s50.5 32.667 66.5 56v-67h116zM350.001 173
c0 -29.333 -10.333 -53 -31 -71s-48 -27 -82 -27c-49.333 0 -74 21.333 -74 64s24.667 64 74 64h113v-30zM305.001 619c0 -17.333 5.66699 -32.166 17 -44.499s27 -18.5 47 -18.5c20.667 0 36.667 6.16699 48 18.5s17 27.166 17 44.499s-5.66699 32.166 -17 44.499
s-27.333 18.5 -48 18.5c-20 0 -35.667 -6.16699 -47 -18.5s-17 -27.166 -17 -44.499zM114.001 619c0 -17.333 5.66699 -32.166 17 -44.499s27 -18.5 47 -18.5s35.667 6.16699 47 18.5s17 27.166 17 44.499s-5.66699 32.166 -17 44.499s-27 18.5 -47 18.5
s-35.667 -6.16699 -47 -18.5s-17 -27.166 -17 -44.499z" />
    <glyph glyph-name="aring" unicode="&#xe5;" horiz-adv-x="529" 
d="M472 0l0.000976562 325c0 58.667 -17.167 101.5 -51.5 128.5s-85.5 40.5 -153.5 40.5c-36 0 -70.167 -3.83301 -102.5 -11.5s-61.5 -18.167 -87.5 -31.5l20 -95c22.667 10.667 46.5 19.167 71.5 25.5s52.5 9.5 82.5 9.5c66 0 99 -24 99 -72v-31h-135
c-24.667 0 -47.5 -2.83301 -68.5 -8.5s-39.167 -14.5 -54.5 -26.5s-27.333 -27.667 -36 -47s-13 -43 -13 -71c0 -45.333 13.167 -80.833 39.5 -106.5s63.5 -38.5 111.5 -38.5c35.333 0 67.166 7 95.499 21s50.5 32.667 66.5 56v-67h116zM350.001 173
c0 -29.333 -10.333 -53 -31 -71s-48 -27 -82 -27c-49.333 0 -74 21.333 -74 64s24.667 64 74 64h113v-30zM373.001 634c0 23.333 -8 43.666 -24 60.999s-41 26 -75 26s-59 -8.66699 -75 -26s-24 -37.666 -24 -60.999s8 -43.833 24 -61.5s41 -26.5 75 -26.5
s59 8.83301 75 26.5s24 38.167 24 61.5zM230.001 634c0 13.333 4 23.666 12 30.999s18.667 11 32 11s24 -3.66699 32 -11s12 -17.666 12 -30.999s-4 -23.666 -12 -30.999s-18.667 -11 -32 -11s-24 3.66699 -32 11s-12 17.666 -12 30.999z" />
    <glyph glyph-name="ae" unicode="&#xe6;" horiz-adv-x="820" 
d="M789 199l-0.00195312 60.999c0 34 -3.83301 65.333 -11.5 94s-19.667 53.334 -36 74.001s-37.166 36.834 -62.499 48.501s-55.666 17.5 -90.999 17.5c-39.333 0 -72.833 -6.83301 -100.5 -20.5s-50.167 -32.834 -67.5 -57.501c-17.333 25.333 -39.333 44.666 -66 57.999
s-59.334 20 -98.001 20c-36.667 0 -69.5 -4 -98.5 -12s-54.5 -17.667 -76.5 -29l21 -92c23.333 10 46.5 17.5 69.5 22.5s49.5 7.5 79.5 7.5c33.333 0 59 -6.83301 77 -20.5s27 -35.5 27 -65.5v-20h-141c-56 0 -98.667 -11.667 -128 -35s-44 -59.666 -44 -108.999
c0 -48 16 -85.167 48 -111.5s76.333 -39.5 133 -39.5c43.333 0 82.333 8.16699 117 24.5s61 39.5 79 69.5c13.333 -29.333 37 -52.333 71 -69s72.333 -25 115 -25c34.667 0 67.167 3.66699 97.5 11s58.166 17.333 83.499 30l-21 83c-22 -10 -45.167 -18 -69.5 -24
s-50.166 -9 -77.499 -9c-46.667 0 -80.167 10 -100.5 30s-33.166 49.333 -38.499 88h310zM354.998 181.999c0 -72.667 -38.667 -109 -116 -109c-25.333 0 -45 5.83301 -59 17.5s-21 27.5 -21 47.5c0 40.667 24 61 72 61h124v-17zM585.998 409.999
c32 0 54.833 -10.167 68.5 -30.5s20.5 -47.5 20.5 -81.5v-13h-196c3.33301 41.333 13.5 72.5 30.5 93.5s42.5 31.5 76.5 31.5z" />
    <glyph glyph-name="ccedilla" unicode="&#xe7;" horiz-adv-x="449" 
d="M376 -105c0 23.333 -8.99805 39.1689 -26.998 47.502s-42 13.166 -72 14.499l6 33c26.667 1.33301 52.167 4.66602 76.5 9.99902s44.5 12.666 60.5 21.999l-18 90c-15.333 -7.33301 -32.333 -13.166 -51 -17.499s-38.667 -6.5 -60 -6.5
c-25.333 0 -46.833 3.66699 -64.5 11s-31.834 17.833 -42.501 31.5s-18.334 29.834 -23.001 48.501s-7 39.667 -7 63c0 22.667 2.33301 43.667 7 63s12.334 35.666 23.001 48.999s24.834 23.833 42.501 31.5s39.167 11.5 64.5 11.5c21.333 0 41.333 -2.33301 60 -7
s35.667 -10.667 51 -18l18 90c-17.333 10 -39.333 17.833 -66 23.5s-54.334 8.5 -83.001 8.5c-40 0 -75 -6 -105 -18s-54.833 -29 -74.5 -51s-34.5 -48.5 -44.5 -79.5s-15 -65.5 -15 -103.5c0 -70 16 -127 48 -171s81 -70 147 -78l-18 -80
c19.333 -1.33301 34.833 -3.16602 46.5 -5.49902s17.5 -8.5 17.5 -18.5c0 -5.33301 -2.16699 -9.66602 -6.5 -12.999s-10 -6 -17 -8s-14.667 -3.33301 -23 -4s-16.5 -1 -24.5 -1l3 -51c22.667 0.666992 44.5 2.5 65.5 5.5s39.167 7.66699 54.5 14
s27.666 14.666 36.999 24.999s14 23.166 14 38.499z" />
    <glyph glyph-name="egrave" unicode="&#xe8;" horiz-adv-x="498" 
d="M467 198v60.998c0 34.667 -3.83301 66.334 -11.5 95.001s-19.834 53.334 -36.501 74.001s-37.667 36.834 -63 48.501s-56 17.5 -92 17.5c-40 0 -74.667 -6.5 -104 -19.5s-53.5 -30.833 -72.5 -53.5s-33 -49.334 -42 -80.001s-13.5 -63.667 -13.5 -99
c0 -38.667 4.83301 -73.5 14.5 -104.5s24.5 -57.5 44.5 -79.5s45.333 -38.833 76 -50.5s67 -17.5 109 -17.5c36 0 69.833 3.66699 101.5 11s60.167 17.333 85.5 30l-21 83c-22 -10 -45.167 -18 -69.5 -24s-50.166 -9 -77.499 -9c-45.333 0 -79 10 -101 30s-34.667 49 -38 87
h311zM262 409.998c32.667 0 55.833 -10.333 69.5 -31s20.5 -48 20.5 -82v-13h-197c4 42 14.333 73.5 31 94.5s42 31.5 76 31.5zM197.999 545.998h118l-54 152h-155z" />
    <glyph glyph-name="eacute" unicode="&#xe9;" horiz-adv-x="498" 
d="M197 546h118l91 152h-155zM467 198v60.998c0 34.667 -3.83301 66.334 -11.5 95.001s-19.834 53.334 -36.501 74.001s-37.667 36.834 -63 48.501s-56 17.5 -92 17.5c-40 0 -74.667 -6.5 -104 -19.5s-53.5 -30.833 -72.5 -53.5s-33 -49.334 -42 -80.001
s-13.5 -63.667 -13.5 -99c0 -38.667 4.83301 -73.5 14.5 -104.5s24.5 -57.5 44.5 -79.5s45.333 -38.833 76 -50.5s67 -17.5 109 -17.5c36 0 69.833 3.66699 101.5 11s60.167 17.333 85.5 30l-21 83c-22 -10 -45.167 -18 -69.5 -24s-50.166 -9 -77.499 -9
c-45.333 0 -79 10 -101 30s-34.667 49 -38 87h311zM262 409.998c32.667 0 55.833 -10.333 69.5 -31s20.5 -48 20.5 -82v-13h-197c4 42 14.333 73.5 31 94.5s42 31.5 76 31.5z" />
    <glyph glyph-name="ecircumflex" unicode="&#xea;" horiz-adv-x="498" 
d="M320 698h-120l-104 -152h111l53 82l53 -82h112zM467 198v60.998c0 34.667 -3.83301 66.334 -11.5 95.001s-19.834 53.334 -36.501 74.001s-37.667 36.834 -63 48.501s-56 17.5 -92 17.5c-40 0 -74.667 -6.5 -104 -19.5s-53.5 -30.833 -72.5 -53.5
s-33 -49.334 -42 -80.001s-13.5 -63.667 -13.5 -99c0 -38.667 4.83301 -73.5 14.5 -104.5s24.5 -57.5 44.5 -79.5s45.333 -38.833 76 -50.5s67 -17.5 109 -17.5c36 0 69.833 3.66699 101.5 11s60.167 17.333 85.5 30l-21 83c-22 -10 -45.167 -18 -69.5 -24
s-50.166 -9 -77.499 -9c-45.333 0 -79 10 -101 30s-34.667 49 -38 87h311zM262 409.998c32.667 0 55.833 -10.333 69.5 -31s20.5 -48 20.5 -82v-13h-197c4 42 14.333 73.5 31 94.5s42 31.5 76 31.5z" />
    <glyph glyph-name="edieresis" unicode="&#xeb;" horiz-adv-x="498" 
d="M290 619c0 -17.333 5.66699 -32.166 17 -44.499s27 -18.5 47 -18.5c20.667 0 36.667 6.16699 48 18.5s17 27.166 17 44.499s-5.66699 32.166 -17 44.499s-27.333 18.5 -48 18.5c-20 0 -35.667 -6.16699 -47 -18.5s-17 -27.166 -17 -44.499zM99 619
c0 -17.333 5.66699 -32.166 17 -44.499s27 -18.5 47 -18.5s35.667 6.16699 47 18.5s17 27.166 17 44.499s-5.66699 32.166 -17 44.499s-27 18.5 -47 18.5s-35.667 -6.16699 -47 -18.5s-17 -27.166 -17 -44.499zM467 198v60.998c0 34.667 -3.83301 66.334 -11.5 95.001
s-19.834 53.334 -36.501 74.001s-37.667 36.834 -63 48.501s-56 17.5 -92 17.5c-40 0 -74.667 -6.5 -104 -19.5s-53.5 -30.833 -72.5 -53.5s-33 -49.334 -42 -80.001s-13.5 -63.667 -13.5 -99c0 -38.667 4.83301 -73.5 14.5 -104.5s24.5 -57.5 44.5 -79.5
s45.333 -38.833 76 -50.5s67 -17.5 109 -17.5c36 0 69.833 3.66699 101.5 11s60.167 17.333 85.5 30l-21 83c-22 -10 -45.167 -18 -69.5 -24s-50.166 -9 -77.499 -9c-45.333 0 -79 10 -101 30s-34.667 49 -38 87h311zM262 409.998c32.667 0 55.833 -10.333 69.5 -31
s20.5 -48 20.5 -82v-13h-197c4 42 14.333 73.5 31 94.5s42 31.5 76 31.5z" />
    <glyph glyph-name="igrave" unicode="&#xec;" horiz-adv-x="251" 
d="M187 0v484h-122v-484h122zM70 546h118l-54 152h-155z" />
    <glyph glyph-name="iacute" unicode="&#xed;" horiz-adv-x="251" 
d="M71 546h118l91 152h-155zM187 0v484h-122v-484h122z" />
    <glyph glyph-name="icircumflex" unicode="&#xee;" horiz-adv-x="251" 
d="M187 698h-120l-104 -152h111l53 82l53 -82h112zM187 0v484h-122v-484h122z" />
    <glyph glyph-name="idieresis" unicode="&#xef;" horiz-adv-x="251" 
d="M158 619c0 -17.333 5.66699 -32.166 17 -44.499s27 -18.5 47 -18.5c20.667 0 36.667 6.16699 48 18.5s17 27.166 17 44.499s-5.66699 32.166 -17 44.499s-27.333 18.5 -48 18.5c-20 0 -35.667 -6.16699 -47 -18.5s-17 -27.166 -17 -44.499zM-33 619
c0 -17.333 5.66699 -32.166 17 -44.499s27 -18.5 47 -18.5s35.667 6.16699 47 18.5s17 27.166 17 44.499s-5.66699 32.166 -17 44.499s-27 18.5 -47 18.5s-35.667 -6.16699 -47 -18.5s-17 -27.166 -17 -44.499zM187 0v484h-122v-484h122z" />
    <glyph glyph-name="eth" unicode="&#xf0;" horiz-adv-x="520" 
d="M227 465l52 47.001c46 -34.667 77.333 -79.334 94 -134.001c-15.333 19.333 -34.833 35 -58.5 47s-51.167 18 -82.5 18c-33.333 0 -62.5 -5.66699 -87.5 -17s-46 -27.166 -63 -47.499s-29.833 -44.333 -38.5 -72s-13 -57.834 -13 -90.501c0 -30.667 5 -59.667 15 -87
s24.333 -51.333 43 -72s41.5 -37 68.5 -49s57.5 -18 91.5 -18c42.667 0 79.167 8 109.5 24s55.333 36.833 75 62.5s34.167 54.5 43.5 86.5s14 63.667 14 95c0 140.667 -45.667 248 -137 322l53 48l-49 52l-65 -59c-21.333 11.333 -44.5 21.666 -69.5 30.999
s-51.833 17.333 -80.5 24l-26 -92c18.667 -5.33301 36.167 -10.666 52.5 -15.999s31.833 -11.333 46.5 -18l-35 -32zM151 216.001c0 40.667 8.83398 73.002 26.501 97.002s44.834 36 81.501 36c34.667 0 61.667 -11.833 81 -35.5s29 -55.834 29 -96.501
c0 -19.333 -2.66699 -37 -8 -53s-12.833 -30 -22.5 -42s-21.334 -21.333 -35.001 -28s-28.834 -10 -45.501 -10c-36 0 -62.833 12.167 -80.5 36.5s-26.5 56.166 -26.5 95.499z" />
    <glyph glyph-name="ntilde" unicode="&#xf1;" horiz-adv-x="551" 
d="M492 0v328.999c0 52.667 -11.833 93.334 -35.5 122.001s-63.5 43 -119.5 43c-20.667 0 -39.167 -2.5 -55.5 -7.5s-30.833 -11.833 -43.5 -20.5s-23.5 -18.667 -32.5 -30s-16.5 -23.333 -22.5 -36v84h-118v-484h122v264c0 40 9.16699 70.833 27.5 92.5
s44.5 32.5 78.5 32.5c26 0 45.333 -7 58 -21s19 -33.667 19 -59v-309h122zM387 688.999c-1.33301 -4 -2.99707 -8.49805 -4.99707 -13.498s-4.33301 -9.83301 -7 -14.5s-6.16699 -8.5 -10.5 -11.5s-9.83301 -4.5 -16.5 -4.5c-8 0 -17.167 2.16699 -27.5 6.5
s-21.5 9.33301 -33.5 15s-24.5 10.667 -37.5 15s-25.5 6.5 -37.5 6.5c-32 0 -55.5 -9 -70.5 -27s-28.167 -45 -39.5 -81l77 -29c4.66699 12.667 9.83398 23.5 15.501 32.5s15.167 13.5 28.5 13.5c9.33301 0 19.666 -2.33301 30.999 -7s23.166 -9.83398 35.499 -15.501
s24.666 -10.834 36.999 -15.501s24.166 -7 35.499 -7c16 0 29.5 2.83301 40.5 8.5s20.333 13.5 28 23.5s14.167 21.5 19.5 34.5s10.333 27.167 15 42.5z" />
    <glyph glyph-name="ograve" unicode="&#xf2;" horiz-adv-x="525" 
d="M493 242c0 36.667 -4.83105 70.334 -14.498 101.001s-24.167 57.167 -43.5 79.5s-43.333 39.833 -72 52.5s-62 19 -100 19s-71.333 -6.33301 -100 -19s-52.834 -30.167 -72.501 -52.5s-34.334 -48.833 -44.001 -79.5s-14.5 -64.334 -14.5 -101.001
s4.83301 -70.334 14.5 -101.001s24.167 -57.167 43.5 -79.5s43.5 -39.833 72.5 -52.5s62.5 -19 100.5 -19s71.333 6.33301 100 19s52.667 30.167 72 52.5s33.833 48.833 43.5 79.5s14.5 64.334 14.5 101.001zM371.002 242c0 -50 -8.5 -88.333 -25.5 -115
s-44.5 -40 -82.5 -40s-65.667 13.333 -83 40s-26 65 -26 115s8.66699 88.333 26 115s45 40 83 40s65.5 -13.333 82.5 -40s25.5 -65 25.5 -115zM205.002 546h118l-54 152h-155z" />
    <glyph glyph-name="oacute" unicode="&#xf3;" horiz-adv-x="525" 
d="M201 546h118l91 152h-155zM493 242c0 36.667 -4.83105 70.334 -14.498 101.001s-24.167 57.167 -43.5 79.5s-43.333 39.833 -72 52.5s-62 19 -100 19s-71.333 -6.33301 -100 -19s-52.834 -30.167 -72.501 -52.5s-34.334 -48.833 -44.001 -79.5
s-14.5 -64.334 -14.5 -101.001s4.83301 -70.334 14.5 -101.001s24.167 -57.167 43.5 -79.5s43.5 -39.833 72.5 -52.5s62.5 -19 100.5 -19s71.333 6.33301 100 19s52.667 30.167 72 52.5s33.833 48.833 43.5 79.5s14.5 64.334 14.5 101.001zM371.002 242
c0 -50 -8.5 -88.333 -25.5 -115s-44.5 -40 -82.5 -40s-65.667 13.333 -83 40s-26 65 -26 115s8.66699 88.333 26 115s45 40 83 40s65.5 -13.333 82.5 -40s25.5 -65 25.5 -115z" />
    <glyph glyph-name="ocircumflex" unicode="&#xf4;" horiz-adv-x="525" 
d="M322 698h-120l-104 -152h111l53 82l53 -82h112zM493 242c0 36.667 -4.83105 70.334 -14.498 101.001s-24.167 57.167 -43.5 79.5s-43.333 39.833 -72 52.5s-62 19 -100 19s-71.333 -6.33301 -100 -19s-52.834 -30.167 -72.501 -52.5s-34.334 -48.833 -44.001 -79.5
s-14.5 -64.334 -14.5 -101.001s4.83301 -70.334 14.5 -101.001s24.167 -57.167 43.5 -79.5s43.5 -39.833 72.5 -52.5s62.5 -19 100.5 -19s71.333 6.33301 100 19s52.667 30.167 72 52.5s33.833 48.833 43.5 79.5s14.5 64.334 14.5 101.001zM371.002 242
c0 -50 -8.5 -88.333 -25.5 -115s-44.5 -40 -82.5 -40s-65.667 13.333 -83 40s-26 65 -26 115s8.66699 88.333 26 115s45 40 83 40s65.5 -13.333 82.5 -40s25.5 -65 25.5 -115z" />
    <glyph glyph-name="otilde" unicode="&#xf5;" horiz-adv-x="525" 
d="M493 242c0 36.667 -4.83105 70.334 -14.498 101.001s-24.167 57.167 -43.5 79.5s-43.333 39.833 -72 52.5s-62 19 -100 19s-71.333 -6.33301 -100 -19s-52.834 -30.167 -72.501 -52.5s-34.334 -48.833 -44.001 -79.5s-14.5 -64.334 -14.5 -101.001
s4.83301 -70.334 14.5 -101.001s24.167 -57.167 43.5 -79.5s43.5 -39.833 72.5 -52.5s62.5 -19 100.5 -19s71.333 6.33301 100 19s52.667 30.167 72 52.5s33.833 48.833 43.5 79.5s14.5 64.334 14.5 101.001zM371.002 242c0 -50 -8.5 -88.333 -25.5 -115
s-44.5 -40 -82.5 -40s-65.667 13.333 -83 40s-26 65 -26 115s8.66699 88.333 26 115s45 40 83 40s65.5 -13.333 82.5 -40s25.5 -65 25.5 -115zM368.002 689c-1.33301 -4 -2.99707 -8.49805 -4.99707 -13.498s-4.33301 -9.83301 -7 -14.5s-6.16699 -8.5 -10.5 -11.5
s-9.83301 -4.5 -16.5 -4.5c-8 0 -17.167 2.16699 -27.5 6.5s-21.5 9.33301 -33.5 15s-24.5 10.667 -37.5 15s-25.5 6.5 -37.5 6.5c-32 0 -55.5 -9 -70.5 -27s-28.167 -45 -39.5 -81l77 -29c4.66699 12.667 9.83398 23.5 15.501 32.5s15.167 13.5 28.5 13.5
c9.33301 0 19.666 -2.33301 30.999 -7s23.166 -9.83398 35.499 -15.501s24.666 -10.834 36.999 -15.501s24.166 -7 35.499 -7c16 0 29.5 2.83301 40.5 8.5s20.333 13.5 28 23.5s14.167 21.5 19.5 34.5s10.333 27.167 15 42.5z" />
    <glyph glyph-name="odieresis" unicode="&#xf6;" horiz-adv-x="525" 
d="M294 619c0 -17.333 5.66699 -32.166 17 -44.499s27 -18.5 47 -18.5c20.667 0 36.667 6.16699 48 18.5s17 27.166 17 44.499s-5.66699 32.166 -17 44.499s-27.333 18.5 -48 18.5c-20 0 -35.667 -6.16699 -47 -18.5s-17 -27.166 -17 -44.499zM103 619
c0 -17.333 5.66699 -32.166 17 -44.499s27 -18.5 47 -18.5s35.667 6.16699 47 18.5s17 27.166 17 44.499s-5.66699 32.166 -17 44.499s-27 18.5 -47 18.5s-35.667 -6.16699 -47 -18.5s-17 -27.166 -17 -44.499zM493 242c0 36.667 -4.83105 70.334 -14.498 101.001
s-24.167 57.167 -43.5 79.5s-43.333 39.833 -72 52.5s-62 19 -100 19s-71.333 -6.33301 -100 -19s-52.834 -30.167 -72.501 -52.5s-34.334 -48.833 -44.001 -79.5s-14.5 -64.334 -14.5 -101.001s4.83301 -70.334 14.5 -101.001s24.167 -57.167 43.5 -79.5
s43.5 -39.833 72.5 -52.5s62.5 -19 100.5 -19s71.333 6.33301 100 19s52.667 30.167 72 52.5s33.833 48.833 43.5 79.5s14.5 64.334 14.5 101.001zM371.002 242c0 -50 -8.5 -88.333 -25.5 -115s-44.5 -40 -82.5 -40s-65.667 13.333 -83 40s-26 65 -26 115
s8.66699 88.333 26 115s45 40 83 40s65.5 -13.333 82.5 -40s25.5 -65 25.5 -115z" />
    <glyph glyph-name="divide" unicode="&#xf7;" horiz-adv-x="542" 
d="M342 516c0 20.667 -6.83301 37.334 -20.5 50.001s-30.5 19 -50.5 19s-36.833 -6.33301 -50.5 -19s-20.5 -29.334 -20.5 -50.001s6.83301 -37.167 20.5 -49.5s30.5 -18.5 50.5 -18.5s36.833 6.16699 50.5 18.5s20.5 28.833 20.5 49.5zM494 272v102h-446v-102h446zM342 130
c0 20.667 -6.83301 37.167 -20.5 49.5s-30.5 18.5 -50.5 18.5s-36.833 -6.16699 -50.5 -18.5s-20.5 -28.833 -20.5 -49.5s6.83301 -37.334 20.5 -50.001s30.5 -19 50.5 -19s36.833 6.33301 50.5 19s20.5 29.334 20.5 50.001z" />
    <glyph glyph-name="oslash" unicode="&#xf8;" horiz-adv-x="521" 
d="M491 242c0 50 -8.99805 94.166 -26.998 132.499s-45 67.833 -81 88.5l44 105h-62l-35 -83c-21.333 6 -44.333 9 -69 9c-38 0 -71.333 -6.33301 -100 -19s-52.834 -30.167 -72.501 -52.5s-34.334 -48.833 -44.001 -79.5s-14.5 -64.334 -14.5 -101.001
c0 -50 8.83301 -94.167 26.5 -132.5s44.5 -68.166 80.5 -89.499l-43 -104h63l34 83c20.667 -6 44 -9 70 -9c38 0 71.333 6.33301 100 19s52.667 30.167 72 52.5s33.833 48.833 43.5 79.5s14.5 64.334 14.5 101.001zM152.002 241.999c0 50 8.66699 88.332 26 114.999
s45 40 83 40c12.667 0 23 -1.33301 31 -4l-112 -270c-18.667 26.667 -28 66.334 -28 119.001zM369.002 241.998c0 -50 -8.49902 -88.334 -25.499 -115.001s-44.5 -40 -82.5 -40c-12.667 0 -23.334 1 -32.001 3l112 270c18.667 -25.333 28 -64.666 28 -117.999z" />
    <glyph glyph-name="ugrave" unicode="&#xf9;" horiz-adv-x="546" 
d="M60 484l-0.000976562 -329c0 -52 11.833 -92.5 35.5 -121.5s62.5 -43.5 116.5 -43.5c40 0 72.333 9.5 97 28.5s42.667 40.833 54 65.5v-84h119v484h-122v-263c0 -40 -8.66699 -71 -26 -93s-43 -33 -77 -33c-25.333 0 -44.166 7 -56.499 21s-18.5 33.667 -18.5 59v309
h-122zM234.999 546h118l-54 152h-155z" />
    <glyph glyph-name="uacute" unicode="&#xfa;" horiz-adv-x="546" 
d="M202 546h118l91 152h-155zM60 484l-0.000976562 -329c0 -52 11.833 -92.5 35.5 -121.5s62.5 -43.5 116.5 -43.5c40 0 72.333 9.5 97 28.5s42.667 40.833 54 65.5v-84h119v484h-122v-263c0 -40 -8.66699 -71 -26 -93s-43 -33 -77 -33c-25.333 0 -44.166 7 -56.499 21
s-18.5 33.667 -18.5 59v309h-122z" />
    <glyph glyph-name="ucircumflex" unicode="&#xfb;" horiz-adv-x="546" 
d="M331 698h-120l-104 -152h111l53 82l53 -82h112zM60 484l-0.000976562 -329c0 -52 11.833 -92.5 35.5 -121.5s62.5 -43.5 116.5 -43.5c40 0 72.333 9.5 97 28.5s42.667 40.833 54 65.5v-84h119v484h-122v-263c0 -40 -8.66699 -71 -26 -93s-43 -33 -77 -33
c-25.333 0 -44.166 7 -56.499 21s-18.5 33.667 -18.5 59v309h-122z" />
    <glyph glyph-name="udieresis" unicode="&#xfc;" horiz-adv-x="546" 
d="M305 619c0 -17.333 5.66699 -32.166 17 -44.499s27 -18.5 47 -18.5c20.667 0 36.667 6.16699 48 18.5s17 27.166 17 44.499s-5.66699 32.166 -17 44.499s-27.333 18.5 -48 18.5c-20 0 -35.667 -6.16699 -47 -18.5s-17 -27.166 -17 -44.499zM114 619
c0 -17.333 5.66699 -32.166 17 -44.499s27 -18.5 47 -18.5s35.667 6.16699 47 18.5s17 27.166 17 44.499s-5.66699 32.166 -17 44.499s-27 18.5 -47 18.5s-35.667 -6.16699 -47 -18.5s-17 -27.166 -17 -44.499zM60 484l-0.000976562 -329c0 -52 11.833 -92.5 35.5 -121.5
s62.5 -43.5 116.5 -43.5c40 0 72.333 9.5 97 28.5s42.667 40.833 54 65.5v-84h119v484h-122v-263c0 -40 -8.66699 -71 -26 -93s-43 -33 -77 -33c-25.333 0 -44.166 7 -56.499 21s-18.5 33.667 -18.5 59v309h-122z" />
    <glyph glyph-name="yacute" unicode="&#xfd;" horiz-adv-x="448" 
d="M226 130l-100 354h-128l167 -487l-54 -175h123l216 662h-128zM168 546h118l91 152h-155z" />
    <glyph glyph-name="thorn" unicode="&#xfe;" horiz-adv-x="558" 
d="M526 242c0 36 -3.66504 69.333 -10.998 100s-18.833 57.167 -34.5 79.5s-35.334 40 -59.001 53s-51.834 19.5 -84.501 19.5c-37.333 0 -68 -8 -92 -24s-43.333 -36.667 -58 -62v258h-122v-844h122v256c12 -24 30.667 -44.667 56 -62s56 -26 92 -26
c33.333 0 62 6.5 86 19.5s43.833 30.667 59.5 53s27.167 48.833 34.5 79.5s11 64 11 100zM404.002 242c0 -47.333 -8 -85 -24 -113s-42.667 -42 -80 -42c-39.333 0 -68 14.5 -86 43.5s-27 66.167 -27 111.5c0 46 9 83.333 27 112s46.667 43 86 43
c37.333 0 64 -14.167 80 -42.5s24 -65.833 24 -112.5z" />
    <glyph glyph-name="ydieresis" unicode="&#xff;" horiz-adv-x="448" 
d="M226 130l-100 354h-128l167 -487l-54 -175h123l216 662h-128zM259 619c0 -17.333 5.66699 -32.166 17 -44.499s27 -18.5 47 -18.5c20.667 0 36.667 6.16699 48 18.5s17 27.166 17 44.499s-5.66699 32.166 -17 44.499s-27.333 18.5 -48 18.5
c-20 0 -35.667 -6.16699 -47 -18.5s-17 -27.166 -17 -44.499zM68 619c0 -17.333 5.66699 -32.166 17 -44.499s27 -18.5 47 -18.5s35.667 6.16699 47 18.5s17 27.166 17 44.499s-5.66699 32.166 -17 44.499s-27 18.5 -47 18.5s-35.667 -6.16699 -47 -18.5
s-17 -27.166 -17 -44.499z" />
    <glyph glyph-name="Amacron" unicode="&#x100;" horiz-adv-x="645" 
d="M9 0h127l53 157h267l53 -157h127l-244 666h-139zM323 554l98 -292h-197zM492 741v95h-338v-95h338z" />
    <glyph glyph-name="amacron" unicode="&#x101;" horiz-adv-x="529" 
d="M472 0l0.000976562 325c0 58.667 -17.167 101.5 -51.5 128.5s-85.5 40.5 -153.5 40.5c-36 0 -70.167 -3.83301 -102.5 -11.5s-61.5 -18.167 -87.5 -31.5l20 -95c22.667 10.667 46.5 19.167 71.5 25.5s52.5 9.5 82.5 9.5c66 0 99 -24 99 -72v-31h-135
c-24.667 0 -47.5 -2.83301 -68.5 -8.5s-39.167 -14.5 -54.5 -26.5s-27.333 -27.667 -36 -47s-13 -43 -13 -71c0 -45.333 13.167 -80.833 39.5 -106.5s63.5 -38.5 111.5 -38.5c35.333 0 67.166 7 95.499 21s50.5 32.667 66.5 56v-67h116zM350.001 173
c0 -29.333 -10.333 -53 -31 -71s-48 -27 -82 -27c-49.333 0 -74 21.333 -74 64s24.667 64 74 64h113v-30zM421.001 565v93h-295v-93h295z" />
    <glyph glyph-name="Abreve" unicode="&#x102;" horiz-adv-x="645" 
d="M9 0h127l53 157h267l53 -157h127l-244 666h-139zM323 554l98 -292h-197zM389 855c0 -17.333 -5.49805 -31 -16.498 -41s-27.833 -15 -50.5 -15s-39.5 5 -50.5 15s-16.5 23.667 -16.5 41h-95c0 -42 14.667 -73.667 44 -95s68.666 -32 117.999 -32
s88.666 10.667 117.999 32s44 53 44 95h-95z" />
    <glyph glyph-name="abreve" unicode="&#x103;" horiz-adv-x="529" 
d="M472 0l0.000976562 325c0 58.667 -17.167 101.5 -51.5 128.5s-85.5 40.5 -153.5 40.5c-36 0 -70.167 -3.83301 -102.5 -11.5s-61.5 -18.167 -87.5 -31.5l20 -95c22.667 10.667 46.5 19.167 71.5 25.5s52.5 9.5 82.5 9.5c66 0 99 -24 99 -72v-31h-135
c-24.667 0 -47.5 -2.83301 -68.5 -8.5s-39.167 -14.5 -54.5 -26.5s-27.333 -27.667 -36 -47s-13 -43 -13 -71c0 -45.333 13.167 -80.833 39.5 -106.5s63.5 -38.5 111.5 -38.5c35.333 0 67.166 7 95.499 21s50.5 32.667 66.5 56v-67h116zM350.001 173
c0 -29.333 -10.333 -53 -31 -71s-48 -27 -82 -27c-49.333 0 -74 21.333 -74 64s24.667 64 74 64h113v-30zM430.001 686h-89c0 -20.667 -5.66699 -36.834 -17 -48.501s-28.333 -17.5 -51 -17.5s-39.667 5.83301 -51 17.5s-17 27.834 -17 48.501h-88
c0 -22 3.83301 -41.667 11.5 -59s18.5 -32 32.5 -44s30.5 -21 49.5 -27s39.833 -9 62.5 -9s43.667 3 63 9s36 15 50 27s24.833 26.667 32.5 44s11.5 37 11.5 59z" />
    <glyph glyph-name="Aogonek" unicode="&#x104;" horiz-adv-x="645" 
d="M392 666l-138.999 -0.00195312l-244 -666h127l53 157h267l53 -157c-14 -10.667 -26.833 -23.667 -38.5 -39s-17.5 -34.666 -17.5 -57.999c0 -26.667 8 -48.5 24 -65.5s40.667 -25.5 74 -25.5c17.333 0 33.333 1.5 48 4.5s26.667 6.5 36 10.5l-10 60
c-4.66699 -1.33301 -9.83398 -2.66602 -15.501 -3.99902s-12.167 -2 -19.5 -2c-25.333 0 -38 11 -38 33c0 10 2.83301 19.167 8.5 27.5s12.667 16 21 23s17.5 13.333 27.5 19s19 11.167 27 16.5zM323.001 553.998l98 -292h-197z" />
    <glyph glyph-name="aogonek" unicode="&#x105;" horiz-adv-x="529" 
d="M462 -113c-4.66699 -1.33301 -10 -2.66504 -16 -3.99805s-12.333 -2 -19 -2c-25.333 0 -38 11 -38 33c0 10 2.83301 19.333 8.5 28s12.834 16.667 21.501 24s17.667 13.833 27 19.5s18 10.5 26 14.5v325c0 58.667 -17.167 101.5 -51.5 128.5s-85.5 40.5 -153.5 40.5
c-36 0 -70.167 -3.83301 -102.5 -11.5s-61.5 -18.167 -87.5 -31.5l20 -95c22.667 10.667 46.5 19.167 71.5 25.5s52.5 9.5 82.5 9.5c66 0 99 -24 99 -72v-31h-135c-24.667 0 -47.5 -2.83301 -68.5 -8.5s-39.167 -14.5 -54.5 -26.5s-27.333 -27.667 -36 -47s-13 -43 -13 -71
c0 -45.333 13.167 -80.833 39.5 -106.5s63.5 -38.5 111.5 -38.5c35.333 0 67.166 7 95.499 21s50.5 32.667 66.5 56v-67c-16 -10.667 -31 -24.334 -45 -41.001s-21 -37.667 -21 -63c0 -24.667 8 -44.834 24 -60.501s40.667 -23.5 74 -23.5c17.333 0 33.333 1.5 48 4.5
s26.667 6.5 36 10.5zM350 173.001c0 -29.333 -10.333 -53 -31 -71s-48 -27 -82 -27c-49.333 0 -74 21.333 -74 64s24.667 64 74 64h113v-30z" />
    <glyph glyph-name="Cacute" unicode="&#x106;" horiz-adv-x="587" 
d="M35 333c0 -53.333 7.83301 -101.333 23.5 -144s38 -78.834 67 -108.501s63.833 -52.5 104.5 -68.5s86 -24 136 -24c42 0 79.167 3.83301 111.5 11.5s58.5 16.167 78.5 25.5l-19 99c-20.667 -8 -44 -14.667 -70 -20s-50.667 -8 -74 -8c-75.333 0 -133 19.833 -173 59.5
s-60 98.834 -60 177.501s20 137.834 60 177.501s97.667 59.5 173 59.5c23.333 0 48 -2.66699 74 -8s49.333 -12 70 -20l19 99c-20 9.33301 -46.167 17.833 -78.5 25.5s-69.5 11.5 -111.5 11.5c-50 0 -95.333 -8 -136 -24s-75.5 -38.833 -104.5 -68.5
s-51.333 -65.834 -67 -108.501s-23.5 -90.667 -23.5 -144zM526 859h-165l-77 -132h119z" />
    <glyph glyph-name="cacute" unicode="&#x107;" horiz-adv-x="449" 
d="M190 546h118l91 152h-155zM420 462c-17.333 10 -39.333 17.832 -66 23.499s-54.334 8.5 -83.001 8.5c-40 0 -75 -6 -105 -18s-54.833 -29 -74.5 -51s-34.5 -48.5 -44.5 -79.5s-15 -65.5 -15 -103.5s5 -72.5 15 -103.5s24.833 -57.5 44.5 -79.5s44.5 -39 74.5 -51
s65 -18 105 -18c28.667 0 56.334 2.83301 83.001 8.5s48.667 13.5 66 23.5l-18 90c-15.333 -7.33301 -32.333 -13.166 -51 -17.499s-38.667 -6.5 -60 -6.5c-25.333 0 -46.833 3.66699 -64.5 11s-31.834 17.833 -42.501 31.5s-18.334 29.834 -23.001 48.501s-7 39.667 -7 63
c0 22.667 2.33301 43.667 7 63s12.334 35.666 23.001 48.999s24.834 23.833 42.501 31.5s39.167 11.5 64.5 11.5c21.333 0 41.333 -2.33301 60 -7s35.667 -10.667 51 -18z" />
    <glyph glyph-name="Ccircumflex" unicode="&#x108;" horiz-adv-x="587" 
d="M35 333c0 -53.333 7.83301 -101.333 23.5 -144s38 -78.834 67 -108.501s63.833 -52.5 104.5 -68.5s86 -24 136 -24c42 0 79.167 3.83301 111.5 11.5s58.5 16.167 78.5 25.5l-19 99c-20.667 -8 -44 -14.667 -70 -20s-50.667 -8 -74 -8c-75.333 0 -133 19.833 -173 59.5
s-60 98.834 -60 177.501s20 137.834 60 177.501s97.667 59.5 173 59.5c23.333 0 48 -2.66699 74 -8s49.333 -12 70 -20l19 99c-20 9.33301 -46.167 17.833 -78.5 25.5s-69.5 11.5 -111.5 11.5c-50 0 -95.333 -8 -136 -24s-75.5 -38.833 -104.5 -68.5
s-51.333 -65.834 -67 -108.501s-23.5 -90.667 -23.5 -144zM416 859h-115l-115 -132h116l57 67l57 -67h117z" />
    <glyph glyph-name="ccircumflex" unicode="&#x109;" horiz-adv-x="449" 
d="M316 698h-120l-104 -152h111l53 82l53 -82h112zM420 462c-17.333 10 -39.333 17.832 -66 23.499s-54.334 8.5 -83.001 8.5c-40 0 -75 -6 -105 -18s-54.833 -29 -74.5 -51s-34.5 -48.5 -44.5 -79.5s-15 -65.5 -15 -103.5s5 -72.5 15 -103.5s24.833 -57.5 44.5 -79.5
s44.5 -39 74.5 -51s65 -18 105 -18c28.667 0 56.334 2.83301 83.001 8.5s48.667 13.5 66 23.5l-18 90c-15.333 -7.33301 -32.333 -13.166 -51 -17.499s-38.667 -6.5 -60 -6.5c-25.333 0 -46.833 3.66699 -64.5 11s-31.834 17.833 -42.501 31.5
s-18.334 29.834 -23.001 48.501s-7 39.667 -7 63c0 22.667 2.33301 43.667 7 63s12.334 35.666 23.001 48.999s24.834 23.833 42.501 31.5s39.167 11.5 64.5 11.5c21.333 0 41.333 -2.33301 60 -7s35.667 -10.667 51 -18z" />
    <glyph glyph-name="Cdotaccent" unicode="&#x10a;" horiz-adv-x="587" 
d="M284 807c0 -20 6.66699 -37.5 20 -52.5s31.333 -22.5 54 -22.5c23.333 0 41.666 7.5 54.999 22.5s20 32.5 20 52.5c0 20.667 -6.66699 38.334 -20 53.001s-31.666 22 -54.999 22c-22.667 0 -40.667 -7.33301 -54 -22s-20 -32.334 -20 -53.001zM35 333
c0 -53.333 7.83301 -101.333 23.5 -144s38 -78.834 67 -108.501s63.833 -52.5 104.5 -68.5s86 -24 136 -24c42 0 79.167 3.83301 111.5 11.5s58.5 16.167 78.5 25.5l-19 99c-20.667 -8 -44 -14.667 -70 -20s-50.667 -8 -74 -8c-75.333 0 -133 19.833 -173 59.5
s-60 98.834 -60 177.501s20 137.834 60 177.501s97.667 59.5 173 59.5c23.333 0 48 -2.66699 74 -8s49.333 -12 70 -20l19 99c-20 9.33301 -46.167 17.833 -78.5 25.5s-69.5 11.5 -111.5 11.5c-50 0 -95.333 -8 -136 -24s-75.5 -38.833 -104.5 -68.5
s-51.333 -65.834 -67 -108.501s-23.5 -90.667 -23.5 -144z" />
    <glyph glyph-name="cdotaccent" unicode="&#x10b;" horiz-adv-x="449" 
d="M420 462c-17.333 10 -39.333 17.832 -66 23.499s-54.334 8.5 -83.001 8.5c-40 0 -75 -6 -105 -18s-54.833 -29 -74.5 -51s-34.5 -48.5 -44.5 -79.5s-15 -65.5 -15 -103.5s5 -72.5 15 -103.5s24.833 -57.5 44.5 -79.5s44.5 -39 74.5 -51s65 -18 105 -18
c28.667 0 56.334 2.83301 83.001 8.5s48.667 13.5 66 23.5l-18 90c-15.333 -7.33301 -32.333 -13.166 -51 -17.499s-38.667 -6.5 -60 -6.5c-25.333 0 -46.833 3.66699 -64.5 11s-31.834 17.833 -42.501 31.5s-18.334 29.834 -23.001 48.501s-7 39.667 -7 63
c0 22.667 2.33301 43.667 7 63s12.334 35.666 23.001 48.999s24.834 23.833 42.501 31.5s39.167 11.5 64.5 11.5c21.333 0 41.333 -2.33301 60 -7s35.667 -10.667 51 -18zM185 623.999c0 -20 6.66699 -37.5 20 -52.5s31.333 -22.5 54 -22.5c23.333 0 41.666 7.5 54.999 22.5
s20 32.5 20 52.5c0 21.333 -6.66699 39.166 -20 53.499s-31.666 21.5 -54.999 21.5c-22.667 0 -40.667 -7.16699 -54 -21.5s-20 -32.166 -20 -53.499z" />
    <glyph glyph-name="Ccaron" unicode="&#x10c;" horiz-adv-x="587" 
d="M35 333c0 -53.333 7.83301 -101.333 23.5 -144s38 -78.834 67 -108.501s63.833 -52.5 104.5 -68.5s86 -24 136 -24c42 0 79.167 3.83301 111.5 11.5s58.5 16.167 78.5 25.5l-19 99c-20.667 -8 -44 -14.667 -70 -20s-50.667 -8 -74 -8c-75.333 0 -133 19.833 -173 59.5
s-60 98.834 -60 177.501s20 137.834 60 177.501s97.667 59.5 173 59.5c23.333 0 48 -2.66699 74 -8s49.333 -12 70 -20l19 99c-20 9.33301 -46.167 17.833 -78.5 25.5s-69.5 11.5 -111.5 11.5c-50 0 -95.333 -8 -136 -24s-75.5 -38.833 -104.5 -68.5
s-51.333 -65.834 -67 -108.501s-23.5 -90.667 -23.5 -144zM535 859h-117l-57 -66l-57 66h-116l115 -132h115z" />
    <glyph glyph-name="ccaron" unicode="&#x10d;" horiz-adv-x="449" 
d="M425 698h-112l-53 -82l-53 82h-111l104 -152h120zM420 462c-17.333 10 -39.333 17.832 -66 23.499s-54.334 8.5 -83.001 8.5c-40 0 -75 -6 -105 -18s-54.833 -29 -74.5 -51s-34.5 -48.5 -44.5 -79.5s-15 -65.5 -15 -103.5s5 -72.5 15 -103.5s24.833 -57.5 44.5 -79.5
s44.5 -39 74.5 -51s65 -18 105 -18c28.667 0 56.334 2.83301 83.001 8.5s48.667 13.5 66 23.5l-18 90c-15.333 -7.33301 -32.333 -13.166 -51 -17.499s-38.667 -6.5 -60 -6.5c-25.333 0 -46.833 3.66699 -64.5 11s-31.834 17.833 -42.501 31.5
s-18.334 29.834 -23.001 48.501s-7 39.667 -7 63c0 22.667 2.33301 43.667 7 63s12.334 35.666 23.001 48.999s24.834 23.833 42.501 31.5s39.167 11.5 64.5 11.5c21.333 0 41.333 -2.33301 60 -7s35.667 -10.667 51 -18z" />
    <glyph glyph-name="Dcaron" unicode="&#x10e;" horiz-adv-x="681" 
d="M72 0h250c48.667 0 93.167 8 133.5 24s74.833 38.667 103.5 68s50.834 64.5 66.501 105.5s23.5 86.167 23.5 135.5s-7.83301 94.5 -23.5 135.5s-37.834 76.167 -66.501 105.5s-63.167 52 -103.5 68s-84.833 24 -133.5 24h-250v-666zM197 107v452h119
c28.667 0 55.667 -4.66699 81 -14s47.333 -23.333 66 -42s33.5 -42.167 44.5 -70.5s16.5 -61.5 16.5 -99.5s-5.5 -71.167 -16.5 -99.5s-25.833 -51.833 -44.5 -70.5s-40.667 -32.667 -66 -42s-52.333 -14 -81 -14h-119zM480 859h-117l-57 -66l-57 66h-116l115 -132h115z" />
    <glyph glyph-name="dcaron" unicode="&#x10f;" horiz-adv-x="740" 
d="M745 666h-142l-38 -223h94zM32 242c0 -36 3.66309 -69.333 10.9961 -100s18.833 -57.167 34.5 -79.5s35.334 -40 59.001 -53s51.834 -19.5 84.501 -19.5c38.667 0 70.667 8.16699 96 24.5s44.666 37.5 57.999 63.5v-78h118v666h-122v-260
c-13.333 26 -31.833 47.167 -55.5 63.5s-54.5 24.5 -92.5 24.5c-33.333 0 -62.166 -6.5 -86.499 -19.5s-44.166 -30.667 -59.499 -53s-26.666 -48.833 -33.999 -79.5s-11 -64 -11 -100zM152.996 242c0 46.667 8.16699 84.167 24.5 112.5s43.166 42.5 80.499 42.5
c39.333 0 68 -14.333 86 -43s27 -66 27 -112c0 -45.333 -9.16699 -82.5 -27.5 -111.5s-46.833 -43.5 -85.5 -43.5c-37.333 0 -64.166 14 -80.499 42s-24.5 65.667 -24.5 113z" />
    <glyph glyph-name="Dcroat" unicode="&#x110;" horiz-adv-x="692" 
d="M21 280h64v-280h249c48.667 0 93.167 8 133.5 24s75 38.667 104 68s51.333 64.5 67 105.5s23.5 86.167 23.5 135.5s-7.83301 94.5 -23.5 135.5s-38 76.167 -67 105.5s-63.667 52 -104 68s-84.833 24 -133.5 24h-249v-280h-64v-106zM536 333
c0 -38 -5.5 -71.167 -16.5 -99.5s-25.833 -51.833 -44.5 -70.5s-40.667 -32.667 -66 -42s-52.333 -14 -81 -14h-118v173h179v106h-179v173h118c28.667 0 55.667 -4.66699 81 -14s47.333 -23.333 66 -42s33.5 -42.167 44.5 -70.5s16.5 -61.5 16.5 -99.5z" />
    <glyph glyph-name="dcroat" unicode="&#x111;" horiz-adv-x="569" 
d="M32 242c0 -36 3.66309 -69.333 10.9961 -100s18.833 -57.167 34.5 -79.5s35.334 -40 59.001 -53s51.834 -19.5 84.501 -19.5c38.667 0 70.667 8.16699 96 24.5s44.666 37.5 57.999 63.5v-78h118v531h60v76h-60v59h-122v-59h-95v-76h95v-125
c-13.333 26 -31.833 47.167 -55.5 63.5s-54.5 24.5 -92.5 24.5c-33.333 0 -62.166 -6.5 -86.499 -19.5s-44.166 -30.667 -59.499 -53s-26.666 -48.833 -33.999 -79.5s-11 -64 -11 -100zM152.996 242c0 46.667 8.16699 84.167 24.5 112.5s43.166 42.5 80.499 42.5
c39.333 0 68 -14.333 86 -43s27 -66 27 -112c0 -45.333 -9.16699 -82.5 -27.5 -111.5s-46.833 -43.5 -85.5 -43.5c-37.333 0 -64.166 14 -80.499 42s-24.5 65.667 -24.5 113z" />
    <glyph glyph-name="Emacron" unicode="&#x112;" horiz-adv-x="564" 
d="M70 0h448v108h-323v180h302v108h-302v162h323v108h-448v-666zM467 741v95h-338v-95h338z" />
    <glyph glyph-name="emacron" unicode="&#x113;" horiz-adv-x="498" 
d="M467 198v60.998c0 34.667 -3.83301 66.334 -11.5 95.001s-19.834 53.334 -36.501 74.001s-37.667 36.834 -63 48.501s-56 17.5 -92 17.5c-40 0 -74.667 -6.5 -104 -19.5s-53.5 -30.833 -72.5 -53.5s-33 -49.334 -42 -80.001s-13.5 -63.667 -13.5 -99
c0 -38.667 4.83301 -73.5 14.5 -104.5s24.5 -57.5 44.5 -79.5s45.333 -38.833 76 -50.5s67 -17.5 109 -17.5c36 0 69.833 3.66699 101.5 11s60.167 17.333 85.5 30l-21 83c-22 -10 -45.167 -18 -69.5 -24s-50.166 -9 -77.499 -9c-45.333 0 -79 10 -101 30s-34.667 49 -38 87
h311zM262 409.998c32.667 0 55.833 -10.333 69.5 -31s20.5 -48 20.5 -82v-13h-197c4 42 14.333 73.5 31 94.5s42 31.5 76 31.5zM406.999 564.998v93h-295v-93h295z" />
    <glyph glyph-name="Ebreve" unicode="&#x114;" horiz-adv-x="564" 
d="M70 0h448v108h-323v180h302v108h-302v162h323v108h-448v-666zM373 855c0 -17.333 -5.49805 -31 -16.498 -41s-27.833 -15 -50.5 -15s-39.5 5 -50.5 15s-16.5 23.667 -16.5 41h-95c0 -42 14.667 -73.667 44 -95s68.666 -32 117.999 -32s88.666 10.667 117.999 32
s44 53 44 95h-95z" />
    <glyph glyph-name="ebreve" unicode="&#x115;" horiz-adv-x="498" 
d="M467 198v60.998c0 34.667 -3.83301 66.334 -11.5 95.001s-19.834 53.334 -36.501 74.001s-37.667 36.834 -63 48.501s-56 17.5 -92 17.5c-40 0 -74.667 -6.5 -104 -19.5s-53.5 -30.833 -72.5 -53.5s-33 -49.334 -42 -80.001s-13.5 -63.667 -13.5 -99
c0 -38.667 4.83301 -73.5 14.5 -104.5s24.5 -57.5 44.5 -79.5s45.333 -38.833 76 -50.5s67 -17.5 109 -17.5c36 0 69.833 3.66699 101.5 11s60.167 17.333 85.5 30l-21 83c-22 -10 -45.167 -18 -69.5 -24s-50.166 -9 -77.499 -9c-45.333 0 -79 10 -101 30s-34.667 49 -38 87
h311zM262 409.998c32.667 0 55.833 -10.333 69.5 -31s20.5 -48 20.5 -82v-13h-197c4 42 14.333 73.5 31 94.5s42 31.5 76 31.5zM419.999 685.998h-89c0 -20.667 -5.66699 -36.834 -17 -48.501s-28.333 -17.5 -51 -17.5s-39.667 5.83301 -51 17.5s-17 27.834 -17 48.501h-88
c0 -22 3.83301 -41.667 11.5 -59s18.5 -32 32.5 -44s30.5 -21 49.5 -27s39.833 -9 62.5 -9s43.667 3 63 9s36 15 50 27s24.833 26.667 32.5 44s11.5 37 11.5 59z" />
    <glyph glyph-name="Edotaccent" unicode="&#x116;" horiz-adv-x="564" 
d="M226 807c0 -20 6.66699 -37.5 20 -52.5s31.333 -22.5 54 -22.5c23.333 0 41.666 7.5 54.999 22.5s20 32.5 20 52.5c0 20.667 -6.66699 38.334 -20 53.001s-31.666 22 -54.999 22c-22.667 0 -40.667 -7.33301 -54 -22s-20 -32.334 -20 -53.001zM70 0h448v108h-323v180h302
v108h-302v162h323v108h-448v-666z" />
    <glyph glyph-name="edotaccent" unicode="&#x117;" horiz-adv-x="498" 
d="M467 198v60.998c0 34.667 -3.83301 66.334 -11.5 95.001s-19.834 53.334 -36.501 74.001s-37.667 36.834 -63 48.501s-56 17.5 -92 17.5c-40 0 -74.667 -6.5 -104 -19.5s-53.5 -30.833 -72.5 -53.5s-33 -49.334 -42 -80.001s-13.5 -63.667 -13.5 -99
c0 -38.667 4.83301 -73.5 14.5 -104.5s24.5 -57.5 44.5 -79.5s45.333 -38.833 76 -50.5s67 -17.5 109 -17.5c36 0 69.833 3.66699 101.5 11s60.167 17.333 85.5 30l-21 83c-22 -10 -45.167 -18 -69.5 -24s-50.166 -9 -77.499 -9c-45.333 0 -79 10 -101 30s-34.667 49 -38 87
h311zM262 409.998c32.667 0 55.833 -10.333 69.5 -31s20.5 -48 20.5 -82v-13h-197c4 42 14.333 73.5 31 94.5s42 31.5 76 31.5zM185.999 623.998c0 -20 6.66699 -37.5 20 -52.5s31.333 -22.5 54 -22.5c23.333 0 41.666 7.5 54.999 22.5s20 32.5 20 52.5
c0 21.333 -6.66699 39.166 -20 53.499s-31.666 21.5 -54.999 21.5c-22.667 0 -40.667 -7.16699 -54 -21.5s-20 -32.166 -20 -53.499z" />
    <glyph glyph-name="Eogonek" unicode="&#x118;" horiz-adv-x="564" 
d="M70 0l332 0.000976562c-16 -10.667 -31 -24.334 -45 -41.001s-21 -37.667 -21 -63c0 -24.667 8 -44.834 24 -60.501s40.667 -23.5 74 -23.5c17.333 0 33.333 1.5 48 4.5s26.667 6.5 36 10.5l-10 60c-4.66699 -1.33301 -10 -2.66602 -16 -3.99902s-12.333 -2 -19 -2
c-25.333 0 -38 11 -38 33c0 10.667 3 20.334 9 29.001s13.167 16.667 21.5 24s17.333 13.666 27 18.999l25.5 14v108h-323v180h302v108h-302v162h323v108h-448v-666z" />
    <glyph glyph-name="eogonek" unicode="&#x119;" horiz-adv-x="498" 
d="M467 198l-0.00195312 60.9941c0 34.667 -3.83301 66.334 -11.5 95.001s-19.834 53.334 -36.501 74.001s-37.667 36.834 -63 48.501s-56 17.5 -92 17.5c-40 0 -74.667 -6.5 -104 -19.5s-53.5 -30.833 -72.5 -53.5s-33 -49.334 -42 -80.001s-13.5 -63.667 -13.5 -99
c0 -38.667 4.83301 -73.5 14.5 -104.5s24.5 -57.5 44.5 -79.5s45.333 -38.833 76 -50.5s67 -17.5 109 -17.5c7.33301 0 14.833 0.333008 22.5 1s14.834 1.33398 21.501 2.00098c-19.333 -10.667 -36.666 -23.667 -51.999 -39s-23 -36 -23 -62c0 -23.333 8 -42.5 24 -57.5
s41 -22.5 75 -22.5c16.667 0 32.5 1.5 47.5 4.5s27.167 6.5 36.5 10.5l-10 60c-4.66699 -1.33301 -10 -2.66602 -16 -3.99902s-12.333 -2 -19 -2c-25.333 0 -38 11 -38 33c0 10.667 3.5 21.334 10.5 32.001s16 20.834 27 30.501s23.5 19.167 37.5 28.5s28.333 18 43 26
l-21 83c-22 -10 -45.167 -18 -69.5 -24s-50.166 -9 -77.499 -9c-45.333 0 -79 10 -101 30s-34.667 49 -38 87h311zM261.998 409.994c32.667 0 55.833 -10.333 69.5 -31s20.5 -48 20.5 -82v-13h-197c4 42 14.333 73.5 31 94.5s42 31.5 76 31.5z" />
    <glyph glyph-name="Ecaron" unicode="&#x11a;" horiz-adv-x="564" 
d="M70 0h448v108h-323v180h302v108h-302v162h323v108h-448v-666zM477 859h-117l-57 -66l-57 66h-116l115 -132h115z" />
    <glyph glyph-name="ecaron" unicode="&#x11b;" horiz-adv-x="498" 
d="M422 698h-112l-53 -82l-53 82h-111l104 -152h120zM467 198v60.998c0 34.667 -3.83301 66.334 -11.5 95.001s-19.834 53.334 -36.501 74.001s-37.667 36.834 -63 48.501s-56 17.5 -92 17.5c-40 0 -74.667 -6.5 -104 -19.5s-53.5 -30.833 -72.5 -53.5
s-33 -49.334 -42 -80.001s-13.5 -63.667 -13.5 -99c0 -38.667 4.83301 -73.5 14.5 -104.5s24.5 -57.5 44.5 -79.5s45.333 -38.833 76 -50.5s67 -17.5 109 -17.5c36 0 69.833 3.66699 101.5 11s60.167 17.333 85.5 30l-21 83c-22 -10 -45.167 -18 -69.5 -24
s-50.166 -9 -77.499 -9c-45.333 0 -79 10 -101 30s-34.667 49 -38 87h311zM262 409.998c32.667 0 55.833 -10.333 69.5 -31s20.5 -48 20.5 -82v-13h-197c4 42 14.333 73.5 31 94.5s42 31.5 76 31.5z" />
    <glyph glyph-name="Gcircumflex" unicode="&#x11c;" horiz-adv-x="660" 
d="M433 859h-115l-115 -132h116l57 67l57 -67h117zM35 329c0 -48 7.16895 -92.6631 21.502 -133.996s36 -77.333 65 -108s65.5 -54.834 109.5 -72.501s96 -26.5 156 -26.5c20 0 40.333 0.833008 61 2.5s40.5 4 59.5 7s36.667 6.5 53 10.5s30.166 8 41.499 12v288h-118v-209
c-13.333 -3.33301 -28.333 -5.66602 -45 -6.99902s-33.667 -2 -51 -2c-74.667 0 -131.334 20.333 -170.001 61s-58 99.667 -58 177s20 137.166 60 179.499s100.333 63.5 181 63.5c34 0 66 -3.16699 96 -9.5s59 -14.5 87 -24.5l19 101
c-32.667 13.333 -66.167 23.333 -100.5 30s-71.833 10 -112.5 10c-58 0 -109 -8.33301 -153 -25s-81 -40.334 -111 -71.001s-52.667 -67.334 -68 -110.001s-23 -90.334 -23 -143.001z" />
    <glyph glyph-name="gcircumflex" unicode="&#x11d;" horiz-adv-x="558" 
d="M345 698h-120l-104 -152h111l53 82l53 -82h112zM493 484l-119.003 -0.000976562v-78c-15.333 30 -36 52.167 -62 66.5s-56 21.5 -90 21.5c-33.333 0 -62 -6.33301 -86 -19s-43.667 -30 -59 -52s-26.666 -47.667 -33.999 -77s-11 -60.333 -11 -93
c0 -33.333 3.5 -64.666 10.5 -93.999s18.167 -55 33.5 -77s35 -39.333 59 -52s53 -19 87 -19c35.333 0 65.5 8 90.5 24s44.833 37.333 59.5 64v-80c0 -16.667 -1.83301 -32 -5.5 -46s-10.167 -26 -19.5 -36s-21.666 -17.833 -36.999 -23.5s-34.333 -8.5 -57 -8.5
c-25.333 0 -51.5 2.83301 -78.5 8.5s-52.5 13.167 -76.5 22.5l-18 -91c12.667 -4.66699 26.334 -9 41.001 -13s29.667 -7.5 45 -10.5s30.5 -5.33301 45.5 -7s29.167 -2.5 42.5 -2.5c84.667 0 145.667 18.667 183 56s56 89.333 56 156v460zM371.997 252.999
c0 -47.333 -10.167 -83.333 -30.5 -108s-46.833 -37 -79.5 -37c-36.667 0 -63.834 12.667 -81.501 38s-26.5 61 -26.5 107c0 44 8.83301 79.167 26.5 105.5s44.834 39.5 81.501 39.5c34 0 60.833 -12.333 80.5 -37s29.5 -60.667 29.5 -108z" />
    <glyph glyph-name="Gbreve" unicode="&#x11e;" horiz-adv-x="660" 
d="M35 329c0 -48 7.16895 -92.6631 21.502 -133.996s36 -77.333 65 -108s65.5 -54.834 109.5 -72.501s96 -26.5 156 -26.5c20 0 40.333 0.833008 61 2.5s40.5 4 59.5 7s36.667 6.5 53 10.5s30.166 8 41.499 12v288h-118v-209
c-13.333 -3.33301 -28.333 -5.66602 -45 -6.99902s-33.667 -2 -51 -2c-74.667 0 -131.334 20.333 -170.001 61s-58 99.667 -58 177s20 137.166 60 179.499s100.333 63.5 181 63.5c34 0 66 -3.16699 96 -9.5s59 -14.5 87 -24.5l19 101
c-32.667 13.333 -66.167 23.333 -100.5 30s-71.833 10 -112.5 10c-58 0 -109 -8.33301 -153 -25s-81 -40.334 -111 -71.001s-52.667 -67.334 -68 -110.001s-23 -90.334 -23 -143.001zM441.002 855.004c0 -17.333 -5.49805 -31 -16.498 -41s-27.833 -15 -50.5 -15
s-39.5 5 -50.5 15s-16.5 23.667 -16.5 41h-95c0 -42 14.667 -73.667 44 -95s68.666 -32 117.999 -32s88.666 10.667 117.999 32s44 53 44 95h-95z" />
    <glyph glyph-name="gbreve" unicode="&#x11f;" horiz-adv-x="558" 
d="M493 484l-119.003 -0.000976562v-78c-15.333 30 -36 52.167 -62 66.5s-56 21.5 -90 21.5c-33.333 0 -62 -6.33301 -86 -19s-43.667 -30 -59 -52s-26.666 -47.667 -33.999 -77s-11 -60.333 -11 -93c0 -33.333 3.5 -64.666 10.5 -93.999s18.167 -55 33.5 -77
s35 -39.333 59 -52s53 -19 87 -19c35.333 0 65.5 8 90.5 24s44.833 37.333 59.5 64v-80c0 -16.667 -1.83301 -32 -5.5 -46s-10.167 -26 -19.5 -36s-21.666 -17.833 -36.999 -23.5s-34.333 -8.5 -57 -8.5c-25.333 0 -51.5 2.83301 -78.5 8.5s-52.5 13.167 -76.5 22.5l-18 -91
c12.667 -4.66699 26.334 -9 41.001 -13s29.667 -7.5 45 -10.5s30.5 -5.33301 45.5 -7s29.167 -2.5 42.5 -2.5c84.667 0 145.667 18.667 183 56s56 89.333 56 156v460zM371.997 252.999c0 -47.333 -10.167 -83.333 -30.5 -108s-46.833 -37 -79.5 -37
c-36.667 0 -63.834 12.667 -81.501 38s-26.5 61 -26.5 107c0 44 8.83301 79.167 26.5 105.5s44.834 39.5 81.501 39.5c34 0 60.833 -12.333 80.5 -37s29.5 -60.667 29.5 -108zM432.997 685.999h-89c0 -20.667 -5.66699 -36.834 -17 -48.501s-28.333 -17.5 -51 -17.5
s-39.667 5.83301 -51 17.5s-17 27.834 -17 48.501h-88c0 -22 3.83301 -41.667 11.5 -59s18.5 -32 32.5 -44s30.5 -21 49.5 -27s39.833 -9 62.5 -9s43.667 3 63 9s36 15 50 27s24.833 26.667 32.5 44s11.5 37 11.5 59z" />
    <glyph glyph-name="Gdotaccent" unicode="&#x120;" horiz-adv-x="660" 
d="M292 807c0 -20 6.66699 -37.5 20 -52.5s31.333 -22.5 54 -22.5c23.333 0 41.666 7.5 54.999 22.5s20 32.5 20 52.5c0 20.667 -6.66699 38.334 -20 53.001s-31.666 22 -54.999 22c-22.667 0 -40.667 -7.33301 -54 -22s-20 -32.334 -20 -53.001zM35 329
c0 -48 7.16895 -92.6631 21.502 -133.996s36 -77.333 65 -108s65.5 -54.834 109.5 -72.501s96 -26.5 156 -26.5c20 0 40.333 0.833008 61 2.5s40.5 4 59.5 7s36.667 6.5 53 10.5s30.166 8 41.499 12v288h-118v-209c-13.333 -3.33301 -28.333 -5.66602 -45 -6.99902
s-33.667 -2 -51 -2c-74.667 0 -131.334 20.333 -170.001 61s-58 99.667 -58 177s20 137.166 60 179.499s100.333 63.5 181 63.5c34 0 66 -3.16699 96 -9.5s59 -14.5 87 -24.5l19 101c-32.667 13.333 -66.167 23.333 -100.5 30s-71.833 10 -112.5 10
c-58 0 -109 -8.33301 -153 -25s-81 -40.334 -111 -71.001s-52.667 -67.334 -68 -110.001s-23 -90.334 -23 -143.001z" />
    <glyph glyph-name="gdotaccent" unicode="&#x121;" horiz-adv-x="558" 
d="M493 484l-119.003 -0.000976562v-78c-15.333 30 -36 52.167 -62 66.5s-56 21.5 -90 21.5c-33.333 0 -62 -6.33301 -86 -19s-43.667 -30 -59 -52s-26.666 -47.667 -33.999 -77s-11 -60.333 -11 -93c0 -33.333 3.5 -64.666 10.5 -93.999s18.167 -55 33.5 -77
s35 -39.333 59 -52s53 -19 87 -19c35.333 0 65.5 8 90.5 24s44.833 37.333 59.5 64v-80c0 -16.667 -1.83301 -32 -5.5 -46s-10.167 -26 -19.5 -36s-21.666 -17.833 -36.999 -23.5s-34.333 -8.5 -57 -8.5c-25.333 0 -51.5 2.83301 -78.5 8.5s-52.5 13.167 -76.5 22.5l-18 -91
c12.667 -4.66699 26.334 -9 41.001 -13s29.667 -7.5 45 -10.5s30.5 -5.33301 45.5 -7s29.167 -2.5 42.5 -2.5c84.667 0 145.667 18.667 183 56s56 89.333 56 156v460zM371.997 252.999c0 -47.333 -10.167 -83.333 -30.5 -108s-46.833 -37 -79.5 -37
c-36.667 0 -63.834 12.667 -81.501 38s-26.5 61 -26.5 107c0 44 8.83301 79.167 26.5 105.5s44.834 39.5 81.501 39.5c34 0 60.833 -12.333 80.5 -37s29.5 -60.667 29.5 -108zM201.997 623.999c0 -20 6.66699 -37.5 20 -52.5s31.333 -22.5 54 -22.5
c23.333 0 41.666 7.5 54.999 22.5s20 32.5 20 52.5c0 21.333 -6.66699 39.166 -20 53.499s-31.666 21.5 -54.999 21.5c-22.667 0 -40.667 -7.16699 -54 -21.5s-20 -32.166 -20 -53.499z" />
    <glyph glyph-name="Gcommaaccent" unicode="&#x122;" horiz-adv-x="660" 
d="M464 -72h-140l-32 -178h102zM35 329c0 -48 7.16895 -92.6631 21.502 -133.996s36 -77.333 65 -108s65.5 -54.834 109.5 -72.501s96 -26.5 156 -26.5c20 0 40.333 0.833008 61 2.5s40.5 4 59.5 7s36.667 6.5 53 10.5s30.166 8 41.499 12v288h-118v-209
c-13.333 -3.33301 -28.333 -5.66602 -45 -6.99902s-33.667 -2 -51 -2c-74.667 0 -131.334 20.333 -170.001 61s-58 99.667 -58 177s20 137.166 60 179.499s100.333 63.5 181 63.5c34 0 66 -3.16699 96 -9.5s59 -14.5 87 -24.5l19 101
c-32.667 13.333 -66.167 23.333 -100.5 30s-71.833 10 -112.5 10c-58 0 -109 -8.33301 -153 -25s-81 -40.334 -111 -71.001s-52.667 -67.334 -68 -110.001s-23 -90.334 -23 -143.001z" />
    <glyph glyph-name="gcommaaccent" unicode="&#x123;" horiz-adv-x="558" 
d="M205 546h144l34 152h-113zM493 484l-119.003 -0.000976562v-78c-15.333 30 -36 52.167 -62 66.5s-56 21.5 -90 21.5c-33.333 0 -62 -6.33301 -86 -19s-43.667 -30 -59 -52s-26.666 -47.667 -33.999 -77s-11 -60.333 -11 -93c0 -33.333 3.5 -64.666 10.5 -93.999
s18.167 -55 33.5 -77s35 -39.333 59 -52s53 -19 87 -19c35.333 0 65.5 8 90.5 24s44.833 37.333 59.5 64v-80c0 -16.667 -1.83301 -32 -5.5 -46s-10.167 -26 -19.5 -36s-21.666 -17.833 -36.999 -23.5s-34.333 -8.5 -57 -8.5c-25.333 0 -51.5 2.83301 -78.5 8.5
s-52.5 13.167 -76.5 22.5l-18 -91c12.667 -4.66699 26.334 -9 41.001 -13s29.667 -7.5 45 -10.5s30.5 -5.33301 45.5 -7s29.167 -2.5 42.5 -2.5c84.667 0 145.667 18.667 183 56s56 89.333 56 156v460zM371.997 252.999c0 -47.333 -10.167 -83.333 -30.5 -108
s-46.833 -37 -79.5 -37c-36.667 0 -63.834 12.667 -81.501 38s-26.5 61 -26.5 107c0 44 8.83301 79.167 26.5 105.5s44.834 39.5 81.501 39.5c34 0 60.833 -12.333 80.5 -37s29.5 -60.667 29.5 -108z" />
    <glyph glyph-name="Hcircumflex" unicode="&#x124;" horiz-adv-x="682" 
d="M70 0h125v282h292v-282h125v666h-125v-273h-292v273h-125v-666zM398 859h-115l-115 -132h116l57 67l57 -67h117z" />
    <glyph glyph-name="hcircumflex" unicode="&#x125;" horiz-adv-x="551" 
d="M492 0l0.000976562 328.999c0 52.667 -11.833 93.334 -35.5 122.001s-63.5 43 -119.5 43c-38.667 0 -70.334 -8.66699 -95.001 -26s-43 -39 -55 -65v263h-122v-666h122v264c0 40 9.16699 70.833 27.5 92.5s44.5 32.5 78.5 32.5c26 0 45.333 -7 58 -21s19 -33.667 19 -59
v-309h122zM185.001 858.999h-115l-115 -132h116l57 67l57 -67h117z" />
    <glyph glyph-name="Hbar" unicode="&#x126;" horiz-adv-x="742" 
d="M642 0v493h72v78h-72v95h-125v-95h-292v95h-125v-95h-72v-78h72v-493h125v282h292v-282h125zM225 393v100h292v-100h-292z" />
    <glyph glyph-name="hbar" unicode="&#x127;" horiz-adv-x="563" 
d="M16 531l60.001 -0.000976562v-531h122v264c0 40 9.16699 70.833 27.5 92.5s44.833 32.5 79.5 32.5c25.333 0 44.5 -7 57.5 -21s19.5 -33.667 19.5 -59v-309h122v329c0 52.667 -12 93.334 -36 122.001s-64 43 -120 43c-38 0 -69.333 -8.66699 -94 -26
s-43.334 -39 -56.001 -65v128h94v76h-94v59h-122v-59h-60v-76z" />
    <glyph glyph-name="Itilde" unicode="&#x128;" horiz-adv-x="275" 
d="M75 0h125v666h-125v-666zM249 868c-2 -4.66699 -3.99707 -9.66797 -5.99707 -15.001s-4.5 -10.166 -7.5 -14.499s-6.66699 -8 -11 -11s-9.83301 -4.5 -16.5 -4.5c-8 0 -17.5 2.16699 -28.5 6.5s-22.833 9.33301 -35.5 15s-25.5 10.667 -38.5 15s-25.833 6.5 -38.5 6.5
c-32.667 0 -57.334 -9 -74.001 -27s-30.334 -45 -41.001 -81l80 -29c5.33301 12.667 10.666 23.5 15.999 32.5s14.666 13.5 27.999 13.5c9.33301 0 20.333 -2.33301 33 -7l39 -15c13.333 -5.33301 26.833 -10.333 40.5 -15s26.167 -7 37.5 -7c14.667 0 27.5 3 38.5 9
s20.333 14 28 24s14.334 21.5 20.001 34.5s10.5 26.5 14.5 40.5z" />
    <glyph glyph-name="itilde" unicode="&#x129;" horiz-adv-x="251" 
d="M187 0v484h-122v-484h122zM230 689c-1.33301 -4 -2.99707 -8.49805 -4.99707 -13.498s-4.33301 -9.83301 -7 -14.5s-6.16699 -8.5 -10.5 -11.5s-9.83301 -4.5 -16.5 -4.5c-8 0 -17.167 2.16699 -27.5 6.5s-21.5 9.33301 -33.5 15s-24.5 10.667 -37.5 15
s-25.5 6.5 -37.5 6.5c-32 0 -55.5 -9 -70.5 -27s-28.167 -45 -39.5 -81l77 -29c4.66699 12.667 9.83398 23.5 15.501 32.5s15.167 13.5 28.5 13.5c9.33301 0 19.666 -2.33301 30.999 -7s23.166 -9.83398 35.499 -15.501s24.666 -10.834 36.999 -15.501s24.166 -7 35.499 -7
c16 0 29.5 2.83301 40.5 8.5s20.333 13.5 28 23.5s14.167 21.5 19.5 34.5s10.333 27.167 15 42.5z" />
    <glyph glyph-name="uni012A" unicode="&#x12a;" horiz-adv-x="275" 
d="M75 0h125v666h-125v-666zM308 741v95h-338v-95h338z" />
    <glyph glyph-name="imacron" unicode="&#x12b;" horiz-adv-x="251" 
d="M187 0v484h-122v-484h122zM275 565v93h-295v-93h295z" />
    <glyph glyph-name="Ibreve" unicode="&#x12c;" horiz-adv-x="275" 
d="M75 0h125v666h-125v-666zM205 855c0 -17.333 -5.49805 -31 -16.498 -41s-27.833 -15 -50.5 -15s-39.5 5 -50.5 15s-16.5 23.667 -16.5 41h-95c0 -42 14.667 -73.667 44 -95s68.666 -32 117.999 -32s88.666 10.667 117.999 32s44 53 44 95h-95z" />
    <glyph glyph-name="uni012D" unicode="&#x12d;" horiz-adv-x="251" 
d="M187 0v484h-122v-484h122zM284 686h-89c0 -20.667 -5.66699 -36.834 -17 -48.501s-28.333 -17.5 -51 -17.5s-39.667 5.83301 -51 17.5s-17 27.834 -17 48.501h-88c0 -22 3.83301 -41.667 11.5 -59s18.5 -32 32.5 -44s30.5 -21 49.5 -27s39.833 -9 62.5 -9s43.667 3 63 9
s36 15 50 27s24.833 26.667 32.5 44s11.5 37 11.5 59z" />
    <glyph glyph-name="Iogonek" unicode="&#x12e;" horiz-adv-x="275" 
d="M190 -114c-8 -3.33301 -17.667 -5 -29 -5c-22 0 -33 11 -33 33c0 10 2.33301 19.167 7 27.5s10.667 16.166 18 23.499s15.166 13.833 23.499 19.5l23.5 15.5v666h-125v-666c-12 -12.667 -22.667 -26.167 -32 -40.5s-14 -33.166 -14 -56.499
c0 -26.667 7.66699 -48.5 23 -65.5s40 -25.5 74 -25.5c14.667 0 28.334 1.5 41.001 4.5s23.667 6.5 33 10.5z" />
    <glyph glyph-name="iogonek" unicode="&#x12f;" horiz-adv-x="251" 
d="M51 619c0 -20 6.66699 -37.5 20 -52.5s31.666 -22.5 54.999 -22.5c22.667 0 40.667 7.5 54 22.5s20 32.5 20 52.5c0 21.333 -6.66699 39.166 -20 53.499s-31.333 21.5 -54 21.5c-23.333 0 -41.666 -7.16699 -54.999 -21.5s-20 -32.166 -20 -53.499zM177 -114
c-8.66699 -3.33301 -18.666 -4.99902 -29.999 -4.99902c-21.333 0 -32 11 -32 33c0 10 2.33301 19.167 7 27.5s10.667 16.166 18 23.499s15.166 13.833 23.499 19.5l23.5 15.5v484h-122v-484c-11.333 -10.667 -22.5 -23.667 -33.5 -39s-16.5 -34.666 -16.5 -57.999
c0 -26.667 7.66699 -48.5 23 -65.5s40 -25.5 74 -25.5c15.333 0 30 1.66699 44 5s24.333 6.66602 31 9.99902z" />
    <glyph glyph-name="Idotaccent" unicode="&#x130;" horiz-adv-x="275" 
d="M75 0h125v666h-125v-666zM65 807c0 -20 6.66699 -37.5 20 -52.5s31.333 -22.5 54 -22.5c23.333 0 41.666 7.5 54.999 22.5s20 32.5 20 52.5c0 20.667 -6.66699 38.334 -20 53.001s-31.666 22 -54.999 22c-22.667 0 -40.667 -7.33301 -54 -22s-20 -32.334 -20 -53.001z
" />
    <glyph glyph-name="dotlessi" unicode="&#x131;" horiz-adv-x="251" 
d="M187 0v484h-122v-484h122z" />
    <glyph glyph-name="IJ" unicode="&#x132;" horiz-adv-x="662" 
d="M75 0h125v666h-125v-666zM290 10c17.333 -6 37.168 -10.834 59.501 -14.501s43.833 -5.5 64.5 -5.5c58.667 0 103 16.333 133 49s45 77.334 45 134.001v493h-125v-494c0 -26 -5.83301 -45.333 -17.5 -58s-32.5 -19 -62.5 -19c-12.667 0 -26.334 1 -41.001 3
s-28.667 4.66699 -42 8z" />
    <glyph glyph-name="ij" unicode="&#x133;" horiz-adv-x="502" 
d="M51 617c0 -20 6.66699 -37.5 20 -52.5s31.666 -22.5 54.999 -22.5c22.667 0 40.667 7.5 54 22.5s20 32.5 20 52.5c0 21.333 -6.66699 39.166 -20 53.499s-31.333 21.5 -54 21.5c-23.333 0 -41.666 -7.16699 -54.999 -21.5s-20 -32.166 -20 -53.499zM187 0v484h-122v-484
h122zM302 617c0 -20 6.66699 -37.5 20 -52.5s31.666 -22.5 54.999 -22.5c22.667 0 40.667 7.5 54 22.5s20 32.5 20 52.5c0 21.333 -6.66699 39.166 -20 53.499s-31.333 21.5 -54 21.5c-23.333 0 -41.666 -7.16699 -54.999 -21.5s-20 -32.166 -20 -53.499zM274 -85
c-7.33301 0 -14.001 0.332031 -20.001 0.999023s-12.333 2 -19 4l-9 -97c9.33301 -3.33301 21 -6 35 -8s27.667 -3 41 -3c46 0 80.167 11.5 102.5 34.5s33.5 55.5 33.5 97.5v540h-122v-524c0 -15.333 -3.16699 -26.666 -9.5 -33.999s-17.166 -11 -32.499 -11z" />
    <glyph glyph-name="Jcircumflex" unicode="&#x134;" horiz-adv-x="387" 
d="M16 10c17.333 -6 37.168 -10.834 59.501 -14.501s43.833 -5.5 64.5 -5.5c58.667 0 103 16.333 133 49s45 77.334 45 134.001v493h-125v-494c0 -26 -5.83301 -45.333 -17.5 -58s-32.5 -19 -62.5 -19c-12.667 0 -26.334 1 -41.001 3s-28.667 4.66699 -42 8z
M312.002 858.999h-115l-115 -132h116l57 67l57 -67h117z" />
    <glyph glyph-name="jcircumflex" unicode="&#x135;" horiz-adv-x="251" 
d="M23 -85c15.333 0 26.167 3.66797 32.5 11.001s9.5 18.666 9.5 33.999v524h122v-540c0 -42 -11.167 -74.5 -33.5 -97.5s-56.5 -34.5 -102.5 -34.5c-13.333 0 -27 1 -41 3s-25.667 4.66699 -35 8l9 97c6.66699 -2 13 -3.33301 19 -4s12.667 -1 20 -1zM291.001 546.001h-112
l-53 82l-53 -82h-111l104 152h120z" />
    <glyph glyph-name="Kcommaaccent" unicode="&#x136;" horiz-adv-x="623" 
d="M70 0h125v316l255 -316h161l-290 341l286 325h-161l-251 -300v300h-125v-666zM393 -72h-140l-32 -178h102z" />
    <glyph glyph-name="kcommaaccent" unicode="&#x137;" horiz-adv-x="498" 
d="M355 0h141l-193 246l185 238h-140l-161 -216v398h-122v-666h122v223zM345 -72h-140l-32 -178h102z" />
    <glyph glyph-name="kgreenlandic" unicode="&#x138;" horiz-adv-x="498" 
d="M354 0h142l-191 246l183 238h-140l-161 -214v214h-122v-484h122v223z" />
    <glyph glyph-name="Lacute" unicode="&#x139;" horiz-adv-x="522" 
d="M320 859h-165l-77 -132h119zM70 0h429v108h-304v558h-125v-666z" />
    <glyph glyph-name="lacute" unicode="&#x13a;" horiz-adv-x="281" 
d="M309 859h-165l-77 -132h119zM263 3l-3 91.001c-11.333 -3.33301 -23 -5 -35 -5c-15.333 0 -25.833 3.33301 -31.5 10s-8.5 16.667 -8.5 30v537h-122v-538c0 -42.667 9 -76.167 27 -100.5s49.667 -36.5 95 -36.5c14.667 0 29.167 1.16699 43.5 3.5
s25.833 5.16602 34.5 8.49902z" />
    <glyph glyph-name="Lcommaaccent" unicode="&#x13b;" horiz-adv-x="522" 
d="M369 -72h-140l-32 -178h102zM70 0h429v108h-304v558h-125v-666z" />
    <glyph glyph-name="lcommaaccent" unicode="&#x13c;" horiz-adv-x="281" 
d="M241 -72h-140l-32 -178h102zM263 3l-3 91.001c-11.333 -3.33301 -23 -5 -35 -5c-15.333 0 -25.833 3.33301 -31.5 10s-8.5 16.667 -8.5 30v537h-122v-538c0 -42.667 9 -76.167 27 -100.5s49.667 -36.5 95 -36.5c14.667 0 29.167 1.16699 43.5 3.5
s25.833 5.16602 34.5 8.49902z" />
    <glyph glyph-name="Lcaron" unicode="&#x13d;" horiz-adv-x="522" 
d="M472 666h-142l-38 -223h94zM70 0h429v108h-304v558h-125v-666z" />
    <glyph glyph-name="lcaron" unicode="&#x13e;" horiz-adv-x="402" 
d="M426 666h-142l-38 -223h94zM263 3l-3 91.001c-11.333 -3.33301 -23 -5 -35 -5c-15.333 0 -25.833 3.33301 -31.5 10s-8.5 16.667 -8.5 30v537h-122v-538c0 -42.667 9 -76.167 27 -100.5s49.667 -36.5 95 -36.5c14.667 0 29.167 1.16699 43.5 3.5
s25.833 5.16602 34.5 8.49902z" />
    <glyph glyph-name="Ldot" unicode="&#x13f;" horiz-adv-x="522" 
d="M70 0h429v108h-304v558h-125v-666zM284 307c0 -22 6.83301 -39.833 20.5 -53.5s31.5 -20.5 53.5 -20.5s39.833 6.83301 53.5 20.5s20.5 31.5 20.5 53.5s-6.83301 39.833 -20.5 53.5s-31.5 20.5 -53.5 20.5s-39.833 -6.83301 -53.5 -20.5s-20.5 -31.5 -20.5 -53.5z" />
    <glyph glyph-name="ldot" unicode="&#x140;" horiz-adv-x="396" 
d="M263 3l-3 91.001c-11.333 -3.33301 -23 -5 -35 -5c-15.333 0 -25.833 3.33301 -31.5 10s-8.5 16.667 -8.5 30v537h-122v-538c0 -42.667 9 -76.167 27 -100.5s49.667 -36.5 95 -36.5c14.667 0 29.167 1.16699 43.5 3.5s25.833 5.16602 34.5 8.49902zM248 281.001
c0 -22 6.83301 -39.833 20.5 -53.5s31.5 -20.5 53.5 -20.5s39.833 6.83301 53.5 20.5s20.5 31.5 20.5 53.5s-6.83301 39.833 -20.5 53.5s-31.5 20.5 -53.5 20.5s-39.833 -6.83301 -53.5 -20.5s-20.5 -31.5 -20.5 -53.5z" />
    <glyph glyph-name="Lslash" unicode="&#x141;" horiz-adv-x="532" 
d="M21 227l58 25v-252h429v108h-304v200l144 64v112l-144 -64v246h-125v-302l-58 -25v-112z" />
    <glyph glyph-name="lslash" unicode="&#x142;" horiz-adv-x="284" 
d="M16 254l48 22.001v-148c0 -42.667 9 -76.167 27 -100.5s49.667 -36.5 95 -36.5c14.667 0 29.167 1.16699 43.5 3.5s25.833 5.16602 34.5 8.49902l-3 91c-11.333 -3.33301 -23 -5 -35 -5c-15.333 0 -25.833 3.33301 -31.5 10s-8.5 16.667 -8.5 30v204l77 36v115l-77 -36
v218h-122v-275l-48 -22v-115z" />
    <glyph glyph-name="Nacute" unicode="&#x143;" horiz-adv-x="707" 
d="M520 859h-165l-77 -132h119zM70 0h121v459l322 -459h124v666h-122v-459l-321 459h-124v-666z" />
    <glyph glyph-name="nacute" unicode="&#x144;" horiz-adv-x="551" 
d="M211 546h118l91 152h-155zM492 0v328.999c0 52.667 -11.833 93.334 -35.5 122.001s-63.5 43 -119.5 43c-20.667 0 -39.167 -2.5 -55.5 -7.5s-30.833 -11.833 -43.5 -20.5s-23.5 -18.667 -32.5 -30s-16.5 -23.333 -22.5 -36v84h-118v-484h122v264
c0 40 9.16699 70.833 27.5 92.5s44.5 32.5 78.5 32.5c26 0 45.333 -7 58 -21s19 -33.667 19 -59v-309h122z" />
    <glyph glyph-name="Ncommaaccent" unicode="&#x145;" horiz-adv-x="707" 
d="M433 -72h-140l-32 -178h102zM70 0h121v459l322 -459h124v666h-122v-459l-321 459h-124v-666z" />
    <glyph glyph-name="ncommaaccent" unicode="&#x146;" horiz-adv-x="551" 
d="M353 -72h-140l-32 -178h102zM492 0v328.999c0 52.667 -11.833 93.334 -35.5 122.001s-63.5 43 -119.5 43c-20.667 0 -39.167 -2.5 -55.5 -7.5s-30.833 -11.833 -43.5 -20.5s-23.5 -18.667 -32.5 -30s-16.5 -23.333 -22.5 -36v84h-118v-484h122v264
c0 40 9.16699 70.833 27.5 92.5s44.5 32.5 78.5 32.5c26 0 45.333 -7 58 -21s19 -33.667 19 -59v-309h122z" />
    <glyph glyph-name="Ncaron" unicode="&#x147;" horiz-adv-x="707" 
d="M70 0h121v459l322 -459h124v666h-122v-459l-321 459h-124v-666zM527 859h-117l-57 -66l-57 66h-116l115 -132h115z" />
    <glyph glyph-name="ncaron" unicode="&#x148;" horiz-adv-x="551" 
d="M442 698h-112l-53 -82l-53 82h-111l104 -152h120zM492 0v328.999c0 52.667 -11.833 93.334 -35.5 122.001s-63.5 43 -119.5 43c-20.667 0 -39.167 -2.5 -55.5 -7.5s-30.833 -11.833 -43.5 -20.5s-23.5 -18.667 -32.5 -30s-16.5 -23.333 -22.5 -36v84h-118v-484h122v264
c0 40 9.16699 70.833 27.5 92.5s44.5 32.5 78.5 32.5c26 0 45.333 -7 58 -21s19 -33.667 19 -59v-309h122z" />
    <glyph glyph-name="napostrophe" unicode="&#x149;" horiz-adv-x="686" 
d="M194 666h-142l-38 -223h94zM626 0v328.999c0 52.667 -11.833 93.334 -35.5 122.001s-63.5 43 -119.5 43c-20.667 0 -39.167 -2.5 -55.5 -7.5s-30.833 -11.833 -43.5 -20.5s-23.5 -18.667 -32.5 -30s-16.5 -23.333 -22.5 -36v84h-118v-484h122v264
c0 40 9.16699 70.833 27.5 92.5s44.5 32.5 78.5 32.5c26 0 45.333 -7 58 -21s19 -33.667 19 -59v-309h122z" />
    <glyph glyph-name="Eng" unicode="&#x14a;" horiz-adv-x="707" 
d="M637 666h-122.002v-459l-321 459h-124v-666h121v459l318 -437c-9.33301 -30 -26 -54.833 -50 -74.5s-53 -35.5 -87 -47.5l40 -88c42 12 77.333 26.833 106 44.5s51.834 38.167 69.501 61.5s30.334 49.5 38.001 78.5s11.5 60.833 11.5 95.5v574z" />
    <glyph glyph-name="eng" unicode="&#x14b;" horiz-adv-x="551" 
d="M276 -103l54 -85.001c54 27.333 94.5 60.833 121.5 100.5s40.5 88.5 40.5 146.5v270c0 52.667 -11.833 93.334 -35.5 122.001s-63.5 43 -119.5 43c-20.667 0 -39.167 -2.5 -55.5 -7.5s-30.833 -11.833 -43.5 -20.5s-23.5 -18.667 -32.5 -30s-16.5 -23.333 -22.5 -36v84
h-118v-484h122v264c0 40 9.16699 70.833 27.5 92.5s44.5 32.5 78.5 32.5c26 0 45.333 -7 58 -21s19 -33.667 19 -59v-255c0 -37.333 -7.66699 -68 -23 -92s-39 -45.667 -71 -65z" />
    <glyph glyph-name="Omacron" unicode="&#x14c;" 
d="M35 333c0 -49.333 6.33301 -95 19 -137s32 -78.333 58 -109s58.5 -54.834 97.5 -72.501s85.167 -26.5 138.5 -26.5c52.667 0 98.667 8.83301 138 26.5s72 41.834 98 72.501s45.333 67 58 109s19 87.667 19 137c0 48.667 -6.33301 94.167 -19 136.5s-32 78.833 -58 109.5
s-58.667 54.834 -98 72.501s-85.333 26.5 -138 26.5c-53.333 0 -99.5 -8.83301 -138.5 -26.5s-71.5 -41.834 -97.5 -72.501s-45.333 -67.167 -58 -109.5s-19 -87.833 -19 -136.5zM348 95c-32.667 0 -60.834 5.83301 -84.501 17.5s-43.167 28 -58.5 49s-26.666 46 -33.999 75
s-11 61.167 -11 96.5c0 34.667 3.66699 66.667 11 96s18.666 54.5 33.999 75.5s34.833 37.333 58.5 49s51.834 17.5 84.501 17.5s60.834 -5.83301 84.501 -17.5s43.167 -28 58.5 -49s26.666 -46.167 33.999 -75.5s11 -61.333 11 -96c0 -35.333 -3.66699 -67.5 -11 -96.5
s-18.666 -54 -33.999 -75s-34.833 -37.333 -58.5 -49s-51.834 -17.5 -84.501 -17.5zM517 741v95h-338v-95h338z" />
    <glyph glyph-name="omacron" unicode="&#x14d;" horiz-adv-x="525" 
d="M410 565v93h-295v-93h295zM493 242c0 36.667 -4.83105 70.334 -14.498 101.001s-24.167 57.167 -43.5 79.5s-43.333 39.833 -72 52.5s-62 19 -100 19s-71.333 -6.33301 -100 -19s-52.834 -30.167 -72.501 -52.5s-34.334 -48.833 -44.001 -79.5
s-14.5 -64.334 -14.5 -101.001s4.83301 -70.334 14.5 -101.001s24.167 -57.167 43.5 -79.5s43.5 -39.833 72.5 -52.5s62.5 -19 100.5 -19s71.333 6.33301 100 19s52.667 30.167 72 52.5s33.833 48.833 43.5 79.5s14.5 64.334 14.5 101.001zM371.002 242
c0 -50 -8.5 -88.333 -25.5 -115s-44.5 -40 -82.5 -40s-65.667 13.333 -83 40s-26 65 -26 115s8.66699 88.333 26 115s45 40 83 40s65.5 -13.333 82.5 -40s25.5 -65 25.5 -115z" />
    <glyph glyph-name="Obreve" unicode="&#x14e;" 
d="M35 333c0 -49.333 6.33301 -95 19 -137s32 -78.333 58 -109s58.5 -54.834 97.5 -72.501s85.167 -26.5 138.5 -26.5c52.667 0 98.667 8.83301 138 26.5s72 41.834 98 72.501s45.333 67 58 109s19 87.667 19 137c0 48.667 -6.33301 94.167 -19 136.5s-32 78.833 -58 109.5
s-58.667 54.834 -98 72.501s-85.333 26.5 -138 26.5c-53.333 0 -99.5 -8.83301 -138.5 -26.5s-71.5 -41.834 -97.5 -72.501s-45.333 -67.167 -58 -109.5s-19 -87.833 -19 -136.5zM348 95c-32.667 0 -60.834 5.83301 -84.501 17.5s-43.167 28 -58.5 49s-26.666 46 -33.999 75
s-11 61.167 -11 96.5c0 34.667 3.66699 66.667 11 96s18.666 54.5 33.999 75.5s34.833 37.333 58.5 49s51.834 17.5 84.501 17.5s60.834 -5.83301 84.501 -17.5s43.167 -28 58.5 -49s26.666 -46.167 33.999 -75.5s11 -61.333 11 -96c0 -35.333 -3.66699 -67.5 -11 -96.5
s-18.666 -54 -33.999 -75s-34.833 -37.333 -58.5 -49s-51.834 -17.5 -84.501 -17.5zM414 855c0 -17.333 -5.49805 -31 -16.498 -41s-27.833 -15 -50.5 -15s-39.5 5 -50.5 15s-16.5 23.667 -16.5 41h-95c0 -42 14.667 -73.667 44 -95s68.666 -32 117.999 -32
s88.666 10.667 117.999 32s44 53 44 95h-95z" />
    <glyph glyph-name="obreve" unicode="&#x14f;" horiz-adv-x="525" 
d="M493 242c0 36.667 -4.83105 70.334 -14.498 101.001s-24.167 57.167 -43.5 79.5s-43.333 39.833 -72 52.5s-62 19 -100 19s-71.333 -6.33301 -100 -19s-52.834 -30.167 -72.501 -52.5s-34.334 -48.833 -44.001 -79.5s-14.5 -64.334 -14.5 -101.001
s4.83301 -70.334 14.5 -101.001s24.167 -57.167 43.5 -79.5s43.5 -39.833 72.5 -52.5s62.5 -19 100.5 -19s71.333 6.33301 100 19s52.667 30.167 72 52.5s33.833 48.833 43.5 79.5s14.5 64.334 14.5 101.001zM371.002 242c0 -50 -8.5 -88.333 -25.5 -115
s-44.5 -40 -82.5 -40s-65.667 13.333 -83 40s-26 65 -26 115s8.66699 88.333 26 115s45 40 83 40s65.5 -13.333 82.5 -40s25.5 -65 25.5 -115zM419.002 686h-89c0 -20.667 -5.66699 -36.834 -17 -48.501s-28.333 -17.5 -51 -17.5s-39.667 5.83301 -51 17.5
s-17 27.834 -17 48.501h-88c0 -22 3.83301 -41.667 11.5 -59s18.5 -32 32.5 -44s30.5 -21 49.5 -27s39.833 -9 62.5 -9s43.667 3 63 9s36 15 50 27s24.833 26.667 32.5 44s11.5 37 11.5 59z" />
    <glyph glyph-name="Ohungarumlaut" unicode="&#x150;" 
d="M587 859h-140l-54 -132h113zM376 859h-131l-44 -132h108zM35 333c0 -49.333 6.33301 -95 19 -137s32 -78.333 58 -109s58.5 -54.834 97.5 -72.501s85.167 -26.5 138.5 -26.5c52.667 0 98.667 8.83301 138 26.5s72 41.834 98 72.501s45.333 67 58 109s19 87.667 19 137
c0 48.667 -6.33301 94.167 -19 136.5s-32 78.833 -58 109.5s-58.667 54.834 -98 72.501s-85.333 26.5 -138 26.5c-53.333 0 -99.5 -8.83301 -138.5 -26.5s-71.5 -41.834 -97.5 -72.501s-45.333 -67.167 -58 -109.5s-19 -87.833 -19 -136.5zM348 95
c-32.667 0 -60.834 5.83301 -84.501 17.5s-43.167 28 -58.5 49s-26.666 46 -33.999 75s-11 61.167 -11 96.5c0 34.667 3.66699 66.667 11 96s18.666 54.5 33.999 75.5s34.833 37.333 58.5 49s51.834 17.5 84.501 17.5s60.834 -5.83301 84.501 -17.5s43.167 -28 58.5 -49
s26.666 -46.167 33.999 -75.5s11 -61.333 11 -96c0 -35.333 -3.66699 -67.5 -11 -96.5s-18.666 -54 -33.999 -75s-34.833 -37.333 -58.5 -49s-51.834 -17.5 -84.501 -17.5z" />
    <glyph glyph-name="ohungarumlaut" unicode="&#x151;" horiz-adv-x="525" 
d="M499 698h-140l-57 -152h113zM294 698h-131l-47 -152h108zM493 242c0 36.667 -4.83105 70.334 -14.498 101.001s-24.167 57.167 -43.5 79.5s-43.333 39.833 -72 52.5s-62 19 -100 19s-71.333 -6.33301 -100 -19s-52.834 -30.167 -72.501 -52.5
s-34.334 -48.833 -44.001 -79.5s-14.5 -64.334 -14.5 -101.001s4.83301 -70.334 14.5 -101.001s24.167 -57.167 43.5 -79.5s43.5 -39.833 72.5 -52.5s62.5 -19 100.5 -19s71.333 6.33301 100 19s52.667 30.167 72 52.5s33.833 48.833 43.5 79.5s14.5 64.334 14.5 101.001z
M371.002 242c0 -50 -8.5 -88.333 -25.5 -115s-44.5 -40 -82.5 -40s-65.667 13.333 -83 40s-26 65 -26 115s8.66699 88.333 26 115s45 40 83 40s65.5 -13.333 82.5 -40s25.5 -65 25.5 -115z" />
    <glyph glyph-name="OE" unicode="&#x152;" horiz-adv-x="1010" 
d="M386 678c-60 0 -112 -8.1709 -156 -24.5039s-80.5 -39.666 -109.5 -69.999s-50.5 -66.666 -64.5 -108.999s-21 -89.5 -21 -141.5s7 -99.167 21 -141.5s35.5 -78.666 64.5 -108.999s65.5 -53.666 109.5 -69.999s96 -24.5 156 -24.5c47.333 0 90 4 128 12h448v108h-323v180
h302v108h-302v162h323v108h-448c-38 8 -80.667 12 -128 12zM514 107.996c-18.667 -4.66699 -37.667 -8 -57 -10s-41 -3 -65 -3c-41.333 0 -76.666 5.66699 -105.999 17s-53.333 27.333 -72 48s-32.334 45.667 -41.001 75s-13 62 -13 98c0 34.667 4.33301 66.5 13 95.5
s22.167 54 40.5 75s41.833 37.5 70.5 49.5s63 18 103 18c25.333 0 48 -1 68 -3s39.667 -5.33301 59 -10v-450z" />
    <glyph glyph-name="oe" unicode="&#x153;" horiz-adv-x="829" 
d="M805 199l0.00292969 59.999c0 34.667 -3.83301 66.334 -11.5 95.001s-19.667 53.334 -36 74.001s-37.166 36.834 -62.499 48.501s-56 17.5 -92 17.5c-40 0 -74.333 -6.83301 -103 -20.5s-52.334 -32.5 -71.001 -56.5c-18.667 23.333 -41.834 42 -69.501 56
s-59.834 21 -96.501 21c-38 0 -71.333 -6.33301 -100 -19s-52.834 -30.167 -72.501 -52.5s-34.334 -48.833 -44.001 -79.5s-14.5 -64.334 -14.5 -101.001s4.83301 -70.334 14.5 -101.001s24.167 -57.167 43.5 -79.5s43.5 -39.833 72.5 -52.5s62.5 -19 100.5 -19
c37.333 0 69.666 6.83301 96.999 20.5s50.333 32.167 69 55.5c19.333 -24.667 44.333 -43.5 75 -56.5s67.667 -19.5 111 -19.5c36 0 69.667 3.66699 101 11s60 17.333 86 30l-21 83c-22 -10 -45.167 -18 -69.5 -24s-50.166 -9 -77.499 -9
c-44.667 0 -77.667 9.83301 -99 29.5s-34.666 49.167 -39.999 88.5h310zM372.003 241.999c0 -50 -8.66699 -88.333 -26 -115s-45 -40 -83 -40s-65.667 13.333 -83 40s-26 65 -26 115s8.66699 88.333 26 115s45 40 83 40s65.667 -13.333 83 -40s26 -65 26 -115z
M601.003 409.999c32.667 0 55.833 -10.333 69.5 -31s20.5 -48 20.5 -82v-13h-197c4 42 14.333 73.5 31 94.5s42 31.5 76 31.5z" />
    <glyph glyph-name="Racute" unicode="&#x154;" horiz-adv-x="660" 
d="M595 458c0 30.667 -4.83301 58.833 -14.5 84.5s-24 47.667 -43 66s-42.167 32.5 -69.5 42.5s-58.333 15 -93 15h-305v-666h125v249h124l159 -249h157l-179 262c43.333 15.333 77.333 40.333 102 75s37 75 37 121zM470 457.999c0 -35.333 -10.333 -62.5 -31 -81.5
s-48.334 -28.5 -83.001 -28.5h-161v217h161c34.667 0 62.334 -9.33301 83.001 -28s31 -45 31 -79zM466 858.999h-165l-77 -132h119z" />
    <glyph glyph-name="racute" unicode="&#x155;" horiz-adv-x="350" 
d="M135 546h118l91 152h-155zM346 373l-0.000976562 111.999c-4.66699 1.33301 -11 2.5 -19 3.5s-15.667 1.5 -23 1.5c-34 0 -60.167 -8.66699 -78.5 -26s-32.166 -41 -41.499 -71v91h-119v-484h123v226c0 48.667 9 85.834 27 111.501s47.667 38.5 89 38.5
c14.667 0 28.667 -1 42 -3z" />
    <glyph glyph-name="Rcommaaccent" unicode="&#x156;" horiz-adv-x="660" 
d="M407 -72h-140l-32 -178h102zM595 458c0 30.667 -4.83301 58.833 -14.5 84.5s-24 47.667 -43 66s-42.167 32.5 -69.5 42.5s-58.333 15 -93 15h-305v-666h125v249h124l159 -249h157l-179 262c43.333 15.333 77.333 40.333 102 75s37 75 37 121zM470 457.999
c0 -35.333 -10.333 -62.5 -31 -81.5s-48.334 -28.5 -83.001 -28.5h-161v217h161c34.667 0 62.334 -9.33301 83.001 -28s31 -45 31 -79z" />
    <glyph glyph-name="rcommaaccent" unicode="&#x157;" horiz-adv-x="350" 
d="M197 -72h-140l-32 -178h102zM346 373l-0.000976562 111.999c-4.66699 1.33301 -11 2.5 -19 3.5s-15.667 1.5 -23 1.5c-34 0 -60.167 -8.66699 -78.5 -26s-32.166 -41 -41.499 -71v91h-119v-484h123v226c0 48.667 9 85.834 27 111.501s47.667 38.5 89 38.5
c14.667 0 28.667 -1 42 -3z" />
    <glyph glyph-name="Rcaron" unicode="&#x158;" horiz-adv-x="660" 
d="M595 458c0 30.667 -4.83301 58.833 -14.5 84.5s-24 47.667 -43 66s-42.167 32.5 -69.5 42.5s-58.333 15 -93 15h-305v-666h125v249h124l159 -249h157l-179 262c43.333 15.333 77.333 40.333 102 75s37 75 37 121zM470 457.999c0 -35.333 -10.333 -62.5 -31 -81.5
s-48.334 -28.5 -83.001 -28.5h-161v217h161c34.667 0 62.334 -9.33301 83.001 -28s31 -45 31 -79zM475 858.999h-117l-57 -66l-57 66h-116l115 -132h115z" />
    <glyph glyph-name="rcaron" unicode="&#x159;" horiz-adv-x="350" 
d="M374 698h-112l-53 -82l-53 82h-111l104 -152h120zM346 373l-0.000976562 111.999c-4.66699 1.33301 -11 2.5 -19 3.5s-15.667 1.5 -23 1.5c-34 0 -60.167 -8.66699 -78.5 -26s-32.166 -41 -41.499 -71v91h-119v-484h123v226c0 48.667 9 85.834 27 111.501
s47.667 38.5 89 38.5c14.667 0 28.667 -1 42 -3z" />
    <glyph glyph-name="Sacute" unicode="&#x15a;" horiz-adv-x="566" 
d="M534 190c0 32 -4.83301 59.002 -14.5 81.002s-24 40.667 -43 56s-42.333 28.166 -70 38.499s-59.5 19.833 -95.5 28.5c-27.333 6.66699 -50.333 13 -69 19s-33.834 12.5 -45.501 19.5s-20.167 15.333 -25.5 25s-8 21.5 -8 35.5c0 32 10.5 53.833 31.5 65.5
s52.167 17.5 93.5 17.5c35.333 0 70.166 -4.16699 104.499 -12.5s65.833 -18.833 94.5 -31.5l23 100c-32.667 15.333 -67 26.833 -103 34.5s-76.333 11.5 -121 11.5c-37.333 0 -71.166 -3.33301 -101.499 -10s-56.333 -17.834 -78 -33.501s-38.5 -36.167 -50.5 -61.5
s-18 -56.333 -18 -93c0 -29.333 4.66699 -54.833 14 -76.5s23.5 -40.5 42.5 -56.5s42.333 -29.333 70 -40s60.167 -20 97.5 -28c26.667 -6 49.334 -11.833 68.001 -17.5s33.667 -12.334 45 -20.001s19.666 -16.667 24.999 -27s8 -23.166 8 -38.499
c0 -31.333 -11.833 -53.333 -35.5 -66s-55.5 -19 -95.5 -19c-33.333 0 -68.166 4.33301 -104.499 13s-71.5 20 -105.5 34l-27 -101c34.667 -14.667 73 -26.5 115 -35.5s83 -13.5 123 -13.5c80.667 0 143.5 17.667 188.5 53s67.5 85 67.5 149zM444 859.002h-165l-77 -132h119
z" />
    <glyph glyph-name="sacute" unicode="&#x15b;" horiz-adv-x="438" 
d="M147 546h118l91 152h-155zM410 151c0 22 -3.83105 40.6641 -11.498 55.9971s-18.334 28.5 -32.001 39.5s-30.167 20.5 -49.5 28.5s-40.333 15.333 -63 22c-18.667 5.33301 -34.334 10 -47.001 14s-23 8.33301 -31 13s-13.833 9.83398 -17.5 15.501
s-5.5 12.834 -5.5 21.501c0 16.667 6.16699 28 18.5 34s30.5 9 54.5 9c26 0 51.167 -3 75.5 -9s46.166 -13.333 65.499 -22l22 88c-22 10.667 -46.5 18.834 -73.5 24.501s-58.167 8.5 -93.5 8.5c-60 0 -106.5 -11.833 -139.5 -35.5s-49.5 -60.5 -49.5 -110.5
c0 -20 2.83301 -37.667 8.5 -53s15.334 -29.166 29.001 -41.499s32.167 -23.833 55.5 -34.5s52.666 -21 87.999 -31c28 -8 47.667 -15.833 59 -23.5s17 -18.834 17 -33.501c0 -33.333 -24.667 -50 -74 -50c-25.333 0 -51 3.16699 -77 9.5s-51.667 14.5 -77 24.5l-26 -88
c28 -11.333 58 -20.333 90 -27s62.667 -10 92 -10c60.667 0 107.834 14.167 141.501 42.5s50.5 67.833 50.5 118.5z" />
    <glyph glyph-name="Scircumflex" unicode="&#x15c;" horiz-adv-x="566" 
d="M534 190c0 32 -4.83301 59.002 -14.5 81.002s-24 40.667 -43 56s-42.333 28.166 -70 38.499s-59.5 19.833 -95.5 28.5c-27.333 6.66699 -50.333 13 -69 19s-33.834 12.5 -45.501 19.5s-20.167 15.333 -25.5 25s-8 21.5 -8 35.5c0 32 10.5 53.833 31.5 65.5
s52.167 17.5 93.5 17.5c35.333 0 70.166 -4.16699 104.499 -12.5s65.833 -18.833 94.5 -31.5l23 100c-32.667 15.333 -67 26.833 -103 34.5s-76.333 11.5 -121 11.5c-37.333 0 -71.166 -3.33301 -101.499 -10s-56.333 -17.834 -78 -33.501s-38.5 -36.167 -50.5 -61.5
s-18 -56.333 -18 -93c0 -29.333 4.66699 -54.833 14 -76.5s23.5 -40.5 42.5 -56.5s42.333 -29.333 70 -40s60.167 -20 97.5 -28c26.667 -6 49.334 -11.833 68.001 -17.5s33.667 -12.334 45 -20.001s19.666 -16.667 24.999 -27s8 -23.166 8 -38.499
c0 -31.333 -11.833 -53.333 -35.5 -66s-55.5 -19 -95.5 -19c-33.333 0 -68.166 4.33301 -104.499 13s-71.5 20 -105.5 34l-27 -101c34.667 -14.667 73 -26.5 115 -35.5s83 -13.5 123 -13.5c80.667 0 143.5 17.667 188.5 53s67.5 85 67.5 149zM344 859.002h-115l-115 -132
h116l57 67l57 -67h117z" />
    <glyph glyph-name="scircumflex" unicode="&#x15d;" horiz-adv-x="438" 
d="M281 698h-120l-104 -152h111l53 82l53 -82h112zM410 151c0 22 -3.83105 40.6641 -11.498 55.9971s-18.334 28.5 -32.001 39.5s-30.167 20.5 -49.5 28.5s-40.333 15.333 -63 22c-18.667 5.33301 -34.334 10 -47.001 14s-23 8.33301 -31 13s-13.833 9.83398 -17.5 15.501
s-5.5 12.834 -5.5 21.501c0 16.667 6.16699 28 18.5 34s30.5 9 54.5 9c26 0 51.167 -3 75.5 -9s46.166 -13.333 65.499 -22l22 88c-22 10.667 -46.5 18.834 -73.5 24.501s-58.167 8.5 -93.5 8.5c-60 0 -106.5 -11.833 -139.5 -35.5s-49.5 -60.5 -49.5 -110.5
c0 -20 2.83301 -37.667 8.5 -53s15.334 -29.166 29.001 -41.499s32.167 -23.833 55.5 -34.5s52.666 -21 87.999 -31c28 -8 47.667 -15.833 59 -23.5s17 -18.834 17 -33.501c0 -33.333 -24.667 -50 -74 -50c-25.333 0 -51 3.16699 -77 9.5s-51.667 14.5 -77 24.5l-26 -88
c28 -11.333 58 -20.333 90 -27s62.667 -10 92 -10c60.667 0 107.834 14.167 141.501 42.5s50.5 67.833 50.5 118.5z" />
    <glyph glyph-name="Scedilla" unicode="&#x15e;" horiz-adv-x="566" 
d="M389 -105c0 23.333 -8.99902 39.1699 -26.999 47.5029s-42 13.166 -72 14.499l6 32c75.333 2.66699 133.833 21.5 175.5 56.5s62.5 83.167 62.5 144.5c0 32 -4.83301 59 -14.5 81s-24 40.667 -43 56s-42.333 28.166 -70 38.499s-59.5 19.833 -95.5 28.5
c-27.333 6.66699 -50.333 13 -69 19s-33.834 12.5 -45.501 19.5s-20.167 15.333 -25.5 25s-8 21.5 -8 35.5c0 32 10.5 53.833 31.5 65.5s52.167 17.5 93.5 17.5c35.333 0 70.166 -4.16699 104.499 -12.5s65.833 -18.833 94.5 -31.5l23 100
c-32.667 15.333 -67 26.833 -103 34.5s-76.333 11.5 -121 11.5c-37.333 0 -71.166 -3.33301 -101.499 -10s-56.333 -17.834 -78 -33.501s-38.5 -36.167 -50.5 -61.5s-18 -56.333 -18 -93c0 -29.333 4.66699 -54.833 14 -76.5s23.5 -40.5 42.5 -56.5s42.333 -29.333 70 -40
s60.167 -20 97.5 -28c26.667 -6 49.334 -11.833 68.001 -17.5s33.667 -12.334 45 -20.001s19.666 -16.667 24.999 -27s8 -23.166 8 -38.499c0 -31.333 -11.833 -53.333 -35.5 -66s-55.5 -19 -95.5 -19c-33.333 0 -68.166 4.33301 -104.499 13s-71.5 20 -105.5 34l-27 -101
c29.333 -12.667 61.333 -23 96 -31s69 -13.333 103 -16l-17 -77c19.333 -1.33301 34.833 -3.16602 46.5 -5.49902s17.5 -8.5 17.5 -18.5c0 -5.33301 -2.16699 -9.66602 -6.5 -12.999s-10 -6 -17 -8s-14.667 -3.33301 -23 -4s-16.5 -1 -24.5 -1l3 -51
c22.667 0.666992 44.5 2.5 65.5 5.5s39.167 7.66699 54.5 14s27.666 14.666 36.999 24.999s14 23.166 14 38.499z" />
    <glyph glyph-name="Scedilla" unicode="&#xf6c1;" horiz-adv-x="566" 
d="M389 -105c0 23.333 -8.99902 39.1699 -26.999 47.5029s-42 13.166 -72 14.499l6 32c75.333 2.66699 133.833 21.5 175.5 56.5s62.5 83.167 62.5 144.5c0 32 -4.83301 59 -14.5 81s-24 40.667 -43 56s-42.333 28.166 -70 38.499s-59.5 19.833 -95.5 28.5
c-27.333 6.66699 -50.333 13 -69 19s-33.834 12.5 -45.501 19.5s-20.167 15.333 -25.5 25s-8 21.5 -8 35.5c0 32 10.5 53.833 31.5 65.5s52.167 17.5 93.5 17.5c35.333 0 70.166 -4.16699 104.499 -12.5s65.833 -18.833 94.5 -31.5l23 100
c-32.667 15.333 -67 26.833 -103 34.5s-76.333 11.5 -121 11.5c-37.333 0 -71.166 -3.33301 -101.499 -10s-56.333 -17.834 -78 -33.501s-38.5 -36.167 -50.5 -61.5s-18 -56.333 -18 -93c0 -29.333 4.66699 -54.833 14 -76.5s23.5 -40.5 42.5 -56.5s42.333 -29.333 70 -40
s60.167 -20 97.5 -28c26.667 -6 49.334 -11.833 68.001 -17.5s33.667 -12.334 45 -20.001s19.666 -16.667 24.999 -27s8 -23.166 8 -38.499c0 -31.333 -11.833 -53.333 -35.5 -66s-55.5 -19 -95.5 -19c-33.333 0 -68.166 4.33301 -104.499 13s-71.5 20 -105.5 34l-27 -101
c29.333 -12.667 61.333 -23 96 -31s69 -13.333 103 -16l-17 -77c19.333 -1.33301 34.833 -3.16602 46.5 -5.49902s17.5 -8.5 17.5 -18.5c0 -5.33301 -2.16699 -9.66602 -6.5 -12.999s-10 -6 -17 -8s-14.667 -3.33301 -23 -4s-16.5 -1 -24.5 -1l3 -51
c22.667 0.666992 44.5 2.5 65.5 5.5s39.167 7.66699 54.5 14s27.666 14.666 36.999 24.999s14 23.166 14 38.499z" />
    <glyph glyph-name="scedilla" unicode="&#x15f;" horiz-adv-x="438" 
d="M324 -105c0 23.333 -8.99609 39.167 -26.9961 47.5s-42 13.166 -72 14.499l6 33c56.667 2 100.667 17 132 45s47 66.667 47 116c0 22 -3.83301 40.667 -11.5 56s-18.334 28.5 -32.001 39.5s-30.167 20.5 -49.5 28.5s-40.333 15.333 -63 22
c-18.667 5.33301 -34.334 10 -47.001 14s-23 8.33301 -31 13s-13.833 9.83398 -17.5 15.501s-5.5 12.834 -5.5 21.501c0 16.667 6.16699 28 18.5 34s30.5 9 54.5 9c26 0 51.167 -3 75.5 -9s46.166 -13.333 65.499 -22l22 88c-22 10.667 -46.5 18.834 -73.5 24.501
s-58.167 8.5 -93.5 8.5c-60 0 -106.5 -11.833 -139.5 -35.5s-49.5 -60.5 -49.5 -110.5c0 -20 2.83301 -37.667 8.5 -53s15.334 -29.166 29.001 -41.499s32.167 -23.833 55.5 -34.5s52.666 -21 87.999 -31c28 -8 47.667 -15.833 59 -23.5s17 -18.834 17 -33.501
c0 -33.333 -24.667 -50 -74 -50c-25.333 0 -51 3.16699 -77 9.5s-51.667 14.5 -77 24.5l-26 -88c21.333 -8.66699 44 -15.834 68 -21.501s47.667 -9.83398 71 -12.501l-18 -80c19.333 -1.33301 34.833 -3.16602 46.5 -5.49902s17.5 -8.5 17.5 -18.5
c0 -5.33301 -2.16699 -9.66602 -6.5 -12.999s-10 -6 -17 -8s-14.667 -3.33301 -23 -4s-16.5 -1 -24.5 -1l3 -51c22.667 0.666992 44.5 2.5 65.5 5.5s39.167 7.66699 54.5 14s27.666 14.666 36.999 24.999s14 23.166 14 38.499z" />
    <glyph glyph-name="scedilla" unicode="&#xf6c2;" horiz-adv-x="438" 
d="M324 -105c0 23.333 -8.99609 39.167 -26.9961 47.5s-42 13.166 -72 14.499l6 33c56.667 2 100.667 17 132 45s47 66.667 47 116c0 22 -3.83301 40.667 -11.5 56s-18.334 28.5 -32.001 39.5s-30.167 20.5 -49.5 28.5s-40.333 15.333 -63 22
c-18.667 5.33301 -34.334 10 -47.001 14s-23 8.33301 -31 13s-13.833 9.83398 -17.5 15.501s-5.5 12.834 -5.5 21.501c0 16.667 6.16699 28 18.5 34s30.5 9 54.5 9c26 0 51.167 -3 75.5 -9s46.166 -13.333 65.499 -22l22 88c-22 10.667 -46.5 18.834 -73.5 24.501
s-58.167 8.5 -93.5 8.5c-60 0 -106.5 -11.833 -139.5 -35.5s-49.5 -60.5 -49.5 -110.5c0 -20 2.83301 -37.667 8.5 -53s15.334 -29.166 29.001 -41.499s32.167 -23.833 55.5 -34.5s52.666 -21 87.999 -31c28 -8 47.667 -15.833 59 -23.5s17 -18.834 17 -33.501
c0 -33.333 -24.667 -50 -74 -50c-25.333 0 -51 3.16699 -77 9.5s-51.667 14.5 -77 24.5l-26 -88c21.333 -8.66699 44 -15.834 68 -21.501s47.667 -9.83398 71 -12.501l-18 -80c19.333 -1.33301 34.833 -3.16602 46.5 -5.49902s17.5 -8.5 17.5 -18.5
c0 -5.33301 -2.16699 -9.66602 -6.5 -12.999s-10 -6 -17 -8s-14.667 -3.33301 -23 -4s-16.5 -1 -24.5 -1l3 -51c22.667 0.666992 44.5 2.5 65.5 5.5s39.167 7.66699 54.5 14s27.666 14.666 36.999 24.999s14 23.166 14 38.499z" />
    <glyph glyph-name="Scaron" unicode="&#x160;" horiz-adv-x="566" 
d="M534 190c0 32 -4.83301 59.002 -14.5 81.002s-24 40.667 -43 56s-42.333 28.166 -70 38.499s-59.5 19.833 -95.5 28.5c-27.333 6.66699 -50.333 13 -69 19s-33.834 12.5 -45.501 19.5s-20.167 15.333 -25.5 25s-8 21.5 -8 35.5c0 32 10.5 53.833 31.5 65.5
s52.167 17.5 93.5 17.5c35.333 0 70.166 -4.16699 104.499 -12.5s65.833 -18.833 94.5 -31.5l23 100c-32.667 15.333 -67 26.833 -103 34.5s-76.333 11.5 -121 11.5c-37.333 0 -71.166 -3.33301 -101.499 -10s-56.333 -17.834 -78 -33.501s-38.5 -36.167 -50.5 -61.5
s-18 -56.333 -18 -93c0 -29.333 4.66699 -54.833 14 -76.5s23.5 -40.5 42.5 -56.5s42.333 -29.333 70 -40s60.167 -20 97.5 -28c26.667 -6 49.334 -11.833 68.001 -17.5s33.667 -12.334 45 -20.001s19.666 -16.667 24.999 -27s8 -23.166 8 -38.499
c0 -31.333 -11.833 -53.333 -35.5 -66s-55.5 -19 -95.5 -19c-33.333 0 -68.166 4.33301 -104.499 13s-71.5 20 -105.5 34l-27 -101c34.667 -14.667 73 -26.5 115 -35.5s83 -13.5 123 -13.5c80.667 0 143.5 17.667 188.5 53s67.5 85 67.5 149zM456 859.002h-117l-57 -66
l-57 66h-116l115 -132h115z" />
    <glyph glyph-name="scaron" unicode="&#x161;" horiz-adv-x="438" 
d="M383 698h-112l-53 -82l-53 82h-111l104 -152h120zM410 151c0 22 -3.83105 40.6641 -11.498 55.9971s-18.334 28.5 -32.001 39.5s-30.167 20.5 -49.5 28.5s-40.333 15.333 -63 22c-18.667 5.33301 -34.334 10 -47.001 14s-23 8.33301 -31 13s-13.833 9.83398 -17.5 15.501
s-5.5 12.834 -5.5 21.501c0 16.667 6.16699 28 18.5 34s30.5 9 54.5 9c26 0 51.167 -3 75.5 -9s46.166 -13.333 65.499 -22l22 88c-22 10.667 -46.5 18.834 -73.5 24.501s-58.167 8.5 -93.5 8.5c-60 0 -106.5 -11.833 -139.5 -35.5s-49.5 -60.5 -49.5 -110.5
c0 -20 2.83301 -37.667 8.5 -53s15.334 -29.166 29.001 -41.499s32.167 -23.833 55.5 -34.5s52.666 -21 87.999 -31c28 -8 47.667 -15.833 59 -23.5s17 -18.834 17 -33.501c0 -33.333 -24.667 -50 -74 -50c-25.333 0 -51 3.16699 -77 9.5s-51.667 14.5 -77 24.5l-26 -88
c28 -11.333 58 -20.333 90 -27s62.667 -10 92 -10c60.667 0 107.834 14.167 141.501 42.5s50.5 67.833 50.5 118.5z" />
    <glyph glyph-name="Tcommaaccent" unicode="&#x162;" horiz-adv-x="551" 
d="M346 -72h-140l-32 -178h102zM530 558v108h-508v-108h191v-558h125v558h192z" />
    <glyph glyph-name="Tcommaaccent" unicode="&#x21a;" horiz-adv-x="551" 
d="M346 -72h-140l-32 -178h102zM530 558v108h-508v-108h191v-558h125v558h192z" />
    <glyph glyph-name="tcommaaccent" unicode="&#x163;" horiz-adv-x="338" 
d="M274 -72h-140l-32 -178h102zM311 3l-2.99902 90c-16.667 -3.33301 -32 -5 -46 -5c-19.333 0 -32.5 3.83301 -39.5 11.5s-10.5 19.5 -10.5 35.5v246h102v103h-102v125h-122v-125h-65v-103h65v-258c0 -45.333 10.667 -78.833 32 -100.5s55.333 -32.5 102 -32.5
c16 0 31.667 1.33301 47 4s28.666 5.66699 39.999 9z" />
    <glyph glyph-name="tcommaaccent" unicode="&#x21b;" horiz-adv-x="338" 
d="M274 -72h-140l-32 -178h102zM311 3l-2.99902 90c-16.667 -3.33301 -32 -5 -46 -5c-19.333 0 -32.5 3.83301 -39.5 11.5s-10.5 19.5 -10.5 35.5v246h102v103h-102v125h-122v-125h-65v-103h65v-258c0 -45.333 10.667 -78.833 32 -100.5s55.333 -32.5 102 -32.5
c16 0 31.667 1.33301 47 4s28.666 5.66699 39.999 9z" />
    <glyph glyph-name="Tcaron" unicode="&#x164;" horiz-adv-x="551" 
d="M530 558v108h-508v-108h191v-558h125v558h192zM450 859h-117l-57 -66l-57 66h-116l115 -132h115z" />
    <glyph glyph-name="tcaron" unicode="&#x165;" horiz-adv-x="376" 
d="M355 558h-92l28 184h133zM310 3c-11.333 -3.33301 -24.667 -6.33301 -40 -9s-31 -4 -47 -4c-46.667 0 -80.667 10.833 -102 32.5s-32 55.167 -32 100.5v258h-65v103h65v125h122v-125h102v-103h-102v-246c0 -16 3.5 -27.833 10.5 -35.5s20.167 -11.5 39.5 -11.5
c14 0 29.333 1.66699 46 5z" />
    <glyph glyph-name="Tbar" unicode="&#x166;" horiz-adv-x="551" 
d="M456 253v105h-118v200h192v108h-508v-108h191v-200h-118v-105h118v-253h125v253h118z" />
    <glyph glyph-name="tbar" unicode="&#x167;" horiz-adv-x="337" 
d="M23 197h66v-74c0 -45.333 10.5 -78.833 31.5 -100.5s54.833 -32.5 101.5 -32.5c16 0 31.667 1.33301 47 4s28.666 5.66699 39.999 9l-3 90c-15.333 -3.33301 -30.666 -5 -45.999 -5c-19.333 0 -32.333 3.83301 -39 11.5s-10 19.5 -10 35.5v62h83v100h-83v84h101v103h-101
v125h-122v-125h-66v-103h66v-84h-66v-100z" />
    <glyph glyph-name="Utilde" unicode="&#x168;" horiz-adv-x="683" 
d="M616 666h-126v-426c0 -46.667 -13.333 -82.5 -40 -107.5s-62.667 -37.5 -108 -37.5c-46 0 -82.333 12.5 -109 37.5s-40 60.833 -40 107.5v426h-125v-419c0 -35.333 5.66699 -68.666 17 -99.999s28.333 -58.666 51 -81.999s51.167 -42 85.5 -56s74.5 -21 120.5 -21
s86.167 7 120.5 21s62.833 32.667 85.5 56s39.667 50.666 51 81.999s17 64.666 17 99.999v419zM456 868c-2 -4.66699 -3.99707 -9.66797 -5.99707 -15.001s-4.5 -10.166 -7.5 -14.499s-6.66699 -8 -11 -11s-9.83301 -4.5 -16.5 -4.5c-8 0 -17.5 2.16699 -28.5 6.5
s-22.833 9.33301 -35.5 15s-25.5 10.667 -38.5 15s-25.833 6.5 -38.5 6.5c-32.667 0 -57.334 -9 -74.001 -27s-30.334 -45 -41.001 -81l80 -29c5.33301 12.667 10.666 23.5 15.999 32.5s14.666 13.5 27.999 13.5c9.33301 0 20.333 -2.33301 33 -7l39 -15
c13.333 -5.33301 26.833 -10.333 40.5 -15s26.167 -7 37.5 -7c14.667 0 27.5 3 38.5 9s20.333 14 28 24s14.334 21.5 20.001 34.5s10.5 26.5 14.5 40.5z" />
    <glyph glyph-name="utilde" unicode="&#x169;" horiz-adv-x="546" 
d="M60 484l-0.000976562 -329c0 -52 11.833 -92.5 35.5 -121.5s62.5 -43.5 116.5 -43.5c40 0 72.333 9.5 97 28.5s42.667 40.833 54 65.5v-84h119v484h-122v-263c0 -40 -8.66699 -71 -26 -93s-43 -33 -77 -33c-25.333 0 -44.166 7 -56.499 21s-18.5 33.667 -18.5 59v309
h-122zM387.999 689c-1.33301 -4 -2.99707 -8.49805 -4.99707 -13.498s-4.33301 -9.83301 -7 -14.5s-6.16699 -8.5 -10.5 -11.5s-9.83301 -4.5 -16.5 -4.5c-8 0 -17.167 2.16699 -27.5 6.5s-21.5 9.33301 -33.5 15s-24.5 10.667 -37.5 15s-25.5 6.5 -37.5 6.5
c-32 0 -55.5 -9 -70.5 -27s-28.167 -45 -39.5 -81l77 -29c4.66699 12.667 9.83398 23.5 15.501 32.5s15.167 13.5 28.5 13.5c9.33301 0 19.666 -2.33301 30.999 -7s23.166 -9.83398 35.499 -15.501s24.666 -10.834 36.999 -15.501s24.166 -7 35.499 -7
c16 0 29.5 2.83301 40.5 8.5s20.333 13.5 28 23.5s14.167 21.5 19.5 34.5s10.333 27.167 15 42.5z" />
    <glyph glyph-name="Umacron" unicode="&#x16a;" horiz-adv-x="683" 
d="M616 666h-126v-426c0 -46.667 -13.333 -82.5 -40 -107.5s-62.667 -37.5 -108 -37.5c-46 0 -82.333 12.5 -109 37.5s-40 60.833 -40 107.5v426h-125v-419c0 -35.333 5.66699 -68.666 17 -99.999s28.333 -58.666 51 -81.999s51.167 -42 85.5 -56s74.5 -21 120.5 -21
s86.167 7 120.5 21s62.833 32.667 85.5 56s39.667 50.666 51 81.999s17 64.666 17 99.999v419zM511 741v95h-338v-95h338z" />
    <glyph glyph-name="umacron" unicode="&#x16b;" horiz-adv-x="546" 
d="M60 484l-0.000976562 -329c0 -52 11.833 -92.5 35.5 -121.5s62.5 -43.5 116.5 -43.5c40 0 72.333 9.5 97 28.5s42.667 40.833 54 65.5v-84h119v484h-122v-263c0 -40 -8.66699 -71 -26 -93s-43 -33 -77 -33c-25.333 0 -44.166 7 -56.499 21s-18.5 33.667 -18.5 59v309
h-122zM426.999 565v93h-295v-93h295z" />
    <glyph glyph-name="Ubreve" unicode="&#x16c;" horiz-adv-x="683" 
d="M616 666h-126v-426c0 -46.667 -13.333 -82.5 -40 -107.5s-62.667 -37.5 -108 -37.5c-46 0 -82.333 12.5 -109 37.5s-40 60.833 -40 107.5v426h-125v-419c0 -35.333 5.66699 -68.666 17 -99.999s28.333 -58.666 51 -81.999s51.167 -42 85.5 -56s74.5 -21 120.5 -21
s86.167 7 120.5 21s62.833 32.667 85.5 56s39.667 50.666 51 81.999s17 64.666 17 99.999v419zM408 855c0 -17.333 -5.49805 -31 -16.498 -41s-27.833 -15 -50.5 -15s-39.5 5 -50.5 15s-16.5 23.667 -16.5 41h-95c0 -42 14.667 -73.667 44 -95s68.666 -32 117.999 -32
s88.666 10.667 117.999 32s44 53 44 95h-95z" />
    <glyph glyph-name="ubreve" unicode="&#x16d;" horiz-adv-x="546" 
d="M60 484l-0.000976562 -329c0 -52 11.833 -92.5 35.5 -121.5s62.5 -43.5 116.5 -43.5c40 0 72.333 9.5 97 28.5s42.667 40.833 54 65.5v-84h119v484h-122v-263c0 -40 -8.66699 -71 -26 -93s-43 -33 -77 -33c-25.333 0 -44.166 7 -56.499 21s-18.5 33.667 -18.5 59v309
h-122zM434.999 686h-89c0 -20.667 -5.66699 -36.834 -17 -48.501s-28.333 -17.5 -51 -17.5s-39.667 5.83301 -51 17.5s-17 27.834 -17 48.501h-88c0 -22 3.83301 -41.667 11.5 -59s18.5 -32 32.5 -44s30.5 -21 49.5 -27s39.833 -9 62.5 -9s43.667 3 63 9s36 15 50 27
s24.833 26.667 32.5 44s11.5 37 11.5 59z" />
    <glyph glyph-name="Uring" unicode="&#x16e;" horiz-adv-x="683" 
d="M440 815c0 23.333 -8 43.666 -24 60.999s-41 26 -75 26s-59 -8.66699 -75 -26s-24 -37.666 -24 -60.999s8 -43.833 24 -61.5s41 -26.5 75 -26.5s59 8.83301 75 26.5s24 38.167 24 61.5zM297 815c0 13.333 4 23.666 12 30.999s18.667 11 32 11s24 -3.66699 32 -11
s12 -17.666 12 -30.999s-4 -23.666 -12 -30.999s-18.667 -11 -32 -11s-24 3.66699 -32 11s-12 17.666 -12 30.999zM616 666h-126v-426c0 -46.667 -13.333 -82.5 -40 -107.5s-62.667 -37.5 -108 -37.5c-46 0 -82.333 12.5 -109 37.5s-40 60.833 -40 107.5v426h-125v-419
c0 -35.333 5.66699 -68.666 17 -99.999s28.333 -58.666 51 -81.999s51.167 -42 85.5 -56s74.5 -21 120.5 -21s86.167 7 120.5 21s62.833 32.667 85.5 56s39.667 50.666 51 81.999s17 64.666 17 99.999v419z" />
    <glyph glyph-name="uring" unicode="&#x16f;" horiz-adv-x="546" 
d="M375 634c0 23.333 -8 43.666 -24 60.999s-41 26 -75 26s-59 -8.66699 -75 -26s-24 -37.666 -24 -60.999s8 -43.833 24 -61.5s41 -26.5 75 -26.5s59 8.83301 75 26.5s24 38.167 24 61.5zM232 634c0 13.333 4 23.666 12 30.999s18.667 11 32 11s24 -3.66699 32 -11
s12 -17.666 12 -30.999s-4 -23.666 -12 -30.999s-18.667 -11 -32 -11s-24 3.66699 -32 11s-12 17.666 -12 30.999zM60 484l-0.000976562 -329c0 -52 11.833 -92.5 35.5 -121.5s62.5 -43.5 116.5 -43.5c40 0 72.333 9.5 97 28.5s42.667 40.833 54 65.5v-84h119v484h-122v-263
c0 -40 -8.66699 -71 -26 -93s-43 -33 -77 -33c-25.333 0 -44.166 7 -56.499 21s-18.5 33.667 -18.5 59v309h-122z" />
    <glyph glyph-name="Uhungarumlaut" unicode="&#x170;" horiz-adv-x="683" 
d="M572 859h-140l-54 -132h113zM361 859h-131l-44 -132h108zM616 666h-126v-426c0 -46.667 -13.333 -82.5 -40 -107.5s-62.667 -37.5 -108 -37.5c-46 0 -82.333 12.5 -109 37.5s-40 60.833 -40 107.5v426h-125v-419c0 -35.333 5.66699 -68.666 17 -99.999
s28.333 -58.666 51 -81.999s51.167 -42 85.5 -56s74.5 -21 120.5 -21s86.167 7 120.5 21s62.833 32.667 85.5 56s39.667 50.666 51 81.999s17 64.666 17 99.999v419z" />
    <glyph glyph-name="uhungarumlaut" unicode="&#x171;" horiz-adv-x="546" 
d="M60 484l-0.000976562 -329c0 -52 11.833 -92.5 35.5 -121.5s62.5 -43.5 116.5 -43.5c40 0 72.333 9.5 97 28.5s42.667 40.833 54 65.5v-84h119v484h-122v-263c0 -40 -8.66699 -71 -26 -93s-43 -33 -77 -33c-25.333 0 -44.166 7 -56.499 21s-18.5 33.667 -18.5 59v309
h-122zM500.999 698h-140l-57 -152h113zM295.999 698h-131l-47 -152h108z" />
    <glyph glyph-name="Uogonek" unicode="&#x172;" horiz-adv-x="683" 
d="M616 666l-125.999 -0.00195312v-426c0 -46.667 -13.333 -82.5 -40 -107.5s-62.667 -37.5 -108 -37.5c-46 0 -82.333 12.5 -109 37.5s-40 60.833 -40 107.5v426h-125v-419c0 -35.333 5.66699 -68.666 17 -99.999s28.333 -58.666 51 -81.999s51.167 -42 85.5 -56
s74.5 -21 120.5 -21h5c-16.667 -11.333 -31 -24.333 -43 -39s-18 -32.667 -18 -54c0 -24.667 8 -44.667 24 -60s40.667 -23 74 -23c17.333 0 33.333 1.5 48 4.5s26.667 6.5 36 10.5l-10 60c-4.66699 -1.33301 -10 -2.66602 -16 -3.99902s-12.333 -2 -19 -2
c-25.333 0 -38 11 -38 33c0 12.667 4.5 24.667 13.5 36s20 22 33 32s26.667 19.333 41 28l38.5 24c35.333 23.333 61.666 53.666 78.999 90.999s26 78 26 122v419z" />
    <glyph glyph-name="uogonek" unicode="&#x173;" horiz-adv-x="546" 
d="M60 484l-0.00195312 -328.999c0 -52 11.833 -92.5 35.5 -121.5s62.5 -43.5 116.5 -43.5c40 0 72.333 9.5 97 28.5s42.667 40.833 54 65.5v-84c-16 -10.667 -30.5 -24.334 -43.5 -41.001s-19.5 -37.667 -19.5 -63c0 -24.667 8 -44.834 24 -60.501s40.667 -23.5 74 -23.5
c17.333 0 33.333 1.5 48 4.5s26.667 6.5 36 10.5l-10 60c-4.66699 -1.33301 -10 -2.66602 -16 -3.99902s-12.333 -2 -19 -2c-25.333 0 -38 11 -38 33c0 10 2.83301 19.333 8.5 28s12.834 16.667 21.501 24s17.667 13.833 27 19.5s18 10.5 26 14.5v484h-122v-263
c0 -40 -8.66699 -71 -26 -93s-43 -33 -77 -33c-25.333 0 -44.166 7 -56.499 21s-18.5 33.667 -18.5 59v309h-122z" />
    <glyph glyph-name="Wcircumflex" unicode="&#x174;" horiz-adv-x="878" 
d="M496 859h-115l-115 -132h116l57 67l57 -67h117zM509 666h-139l-131 -463l-108 463h-126l175 -666h117l143 529l141 -529h117l174 666h-126l-107 -463z" />
    <glyph glyph-name="wcircumflex" unicode="&#x175;" horiz-adv-x="725" 
d="M422 698h-120l-104 -152h111l53 82l53 -82h112zM426 484h-127l-95 -342l-83 342h-120l139 -484h124l99 351l99 -351h123l139 484h-120l-82 -342z" />
    <glyph glyph-name="Ycircumflex" unicode="&#x176;" horiz-adv-x="559" 
d="M557 666h-132l-146 -293l-145 293h-132l215 -403v-263h125v263zM336 859h-115l-115 -132h116l57 67l57 -67h117z" />
    <glyph glyph-name="ycircumflex" unicode="&#x177;" horiz-adv-x="448" 
d="M226 130l-100 354h-128l167 -487l-54 -175h123l216 662h-128zM292 698h-120l-104 -152h111l53 82l53 -82h112z" />
    <glyph glyph-name="Ydieresis" unicode="&#x178;" horiz-adv-x="559" 
d="M557 666h-132l-146 -293l-145 293h-132l215 -403v-263h125v263zM316 793c0 -18 5.66699 -32.667 17 -44s27.333 -17 48 -17s36.5 5.66699 47.5 17s16.5 26 16.5 44c0 18.667 -5.5 33.667 -16.5 45s-26.833 17 -47.5 17s-36.667 -5.66699 -48 -17s-17 -26.333 -17 -45z
M114 793c0 -18 5.5 -32.667 16.5 -44s26.833 -17 47.5 -17s36.5 5.66699 47.5 17s16.5 26 16.5 44c0 18.667 -5.5 33.667 -16.5 45s-26.833 17 -47.5 17s-36.5 -5.66699 -47.5 -17s-16.5 -26.333 -16.5 -45z" />
    <glyph glyph-name="Zacute" unicode="&#x179;" horiz-adv-x="581" 
d="M536 0v108h-344l334 447v111h-468v-108h324l-334 -447v-111h488zM455 859h-165l-77 -132h119z" />
    <glyph glyph-name="zacute" unicode="&#x17a;" horiz-adv-x="460" 
d="M170 546h118l91 152h-155zM421 0v97h-236l232 291v96h-363v-96h215l-227 -291v-97h379z" />
    <glyph glyph-name="Zdotaccent" unicode="&#x17b;" horiz-adv-x="581" 
d="M221 807c0 -20 6.66699 -37.5 20 -52.5s31.333 -22.5 54 -22.5c23.333 0 41.666 7.5 54.999 22.5s20 32.5 20 52.5c0 20.667 -6.66699 38.334 -20 53.001s-31.666 22 -54.999 22c-22.667 0 -40.667 -7.33301 -54 -22s-20 -32.334 -20 -53.001zM536 0v108h-344l334 447
v111h-468v-108h324l-334 -447v-111h488z" />
    <glyph glyph-name="zdotaccent" unicode="&#x17c;" horiz-adv-x="460" 
d="M421 0v97h-236l232 291v96h-363v-96h215l-227 -291v-97h379zM166 624c0 -20 6.66699 -37.5 20 -52.5s31.333 -22.5 54 -22.5c23.333 0 41.666 7.5 54.999 22.5s20 32.5 20 52.5c0 21.333 -6.66699 39.166 -20 53.499s-31.666 21.5 -54.999 21.5
c-22.667 0 -40.667 -7.16699 -54 -21.5s-20 -32.166 -20 -53.499z" />
    <glyph glyph-name="Zcaron" unicode="&#x17d;" horiz-adv-x="581" 
d="M536 0v108h-344l334 447v111h-468v-108h324l-334 -447v-111h488zM472 859h-117l-57 -66l-57 66h-116l115 -132h115z" />
    <glyph glyph-name="zcaron" unicode="&#x17e;" horiz-adv-x="460" 
d="M405 698h-112l-53 -82l-53 82h-111l104 -152h120zM421 0v97h-236l232 291v96h-363v-96h215l-227 -291v-97h379z" />
    <glyph glyph-name="florin" unicode="&#x192;" horiz-adv-x="391" 
d="M120 352l-33.999 -387.999c-2 -19.333 -7.16699 -33.666 -15.5 -42.999s-22.5 -14 -42.5 -14c-16 0 -33 2.66699 -51 8l-14 -88c12 -4 26.333 -7.5 43 -10.5s34.667 -4.5 54 -4.5c43.333 0 77.666 12.167 102.999 36.5s40.333 62.833 45 115.5l34 388h97v97h-88l6 78
c1.33301 19.333 6.33301 33.166 15 41.499s22.334 12.5 41.001 12.5c12.667 0 24.334 -1.16699 35.001 -3.5s19.667 -4.83301 27 -7.5l14 88c-12.667 5.33301 -27.834 9.66602 -45.501 12.999s-37.167 5 -58.5 5c-48.667 0 -84.834 -12.5 -108.501 -37.5
s-37.5 -61.833 -41.5 -110.5l-6 -79h-72v-97h63z" />
    <glyph glyph-name="Aringacute" unicode="&#x1fa;" horiz-adv-x="645" 
d="M445 950h-150l-26 -107h111zM422 725c0 23.333 -8 43.666 -24 60.999s-41 26 -75 26s-59.167 -8.66699 -75.5 -26s-24.5 -37.666 -24.5 -60.999c0 -26.667 9.33301 -47.334 28 -62.001l-242 -663h127l53 157h267l53 -157h127l-243 663
c9.33301 7.33301 16.5 16.333 21.5 27s7.5 22.334 7.5 35.001zM279 725c0 13.333 4 23.668 12 31.001s18.667 11 32 11c28.667 0 43 -14 43 -42s-14.333 -42 -43 -42c-13.333 0 -24 3.66699 -32 11s-12 17.666 -12 30.999zM323 554.002l98 -292h-197z" />
    <glyph glyph-name="aringacute" unicode="&#x1fb;" horiz-adv-x="529" 
d="M335 760h-112l30 108h150zM172 631c0 23.333 8 43.833 24 61.5s41 26.5 75 26.5s59 -8.83301 75 -26.5s24 -38.167 24 -61.5s-8 -43.666 -24 -60.999s-41 -26 -75 -26s-59 8.66699 -75 26s-24 37.666 -24 60.999zM227 631c0 -13.333 4 -23.667 12 -31s18.667 -11 32 -11
c14 0 24.833 3.66699 32.5 11s11.5 17.666 11.5 30.999c0 28 -14.667 42 -44 42c-13.333 0 -24 -3.66699 -32 -11s-12 -17.666 -12 -30.999zM356 -0.000976562l-0.000976562 67c-16 -23.333 -38.167 -42 -66.5 -56s-60.166 -21 -95.499 -21
c-48 0 -85.167 12.833 -111.5 38.5s-39.5 61.167 -39.5 106.5c0 28 4.33301 51.667 13 71s20.667 35 36 47s33.5 20.833 54.5 26.5s43.833 8.5 68.5 8.5h135v31c0 48 -33 72 -99 72c-30 0 -57.5 -3.16699 -82.5 -9.5s-48.833 -14.833 -71.5 -25.5l-20 95
c26 13.333 55.167 23.833 87.5 31.5s66.5 11.5 102.5 11.5c68 0 119.167 -13.5 153.5 -40.5s51.5 -69.833 51.5 -128.5v-325h-116zM349.999 202.999h-113c-49.333 0 -74 -21.333 -74 -64s24.667 -64 74 -64c34 0 61.333 9 82 27s31 41.667 31 71v30z" />
    <glyph glyph-name="AEacute" unicode="&#x1fc;" horiz-adv-x="869" 
d="M823 666h-570l-244 -666h127l54 159h265l54 -159h314v108h-234l-59 180h272v108h-307l-54 162h382v108zM323 563l98 -301h-197zM527 859h-165l-77 -132h119z" />
    <glyph glyph-name="aeacute" unicode="&#x1fd;" horiz-adv-x="820" 
d="M361 546h118l91 152h-155zM789 199l-0.00195312 60.999c0 34 -3.83301 65.333 -11.5 94s-19.667 53.334 -36 74.001s-37.166 36.834 -62.499 48.501s-55.666 17.5 -90.999 17.5c-39.333 0 -72.833 -6.83301 -100.5 -20.5s-50.167 -32.834 -67.5 -57.501
c-17.333 25.333 -39.333 44.666 -66 57.999s-59.334 20 -98.001 20c-36.667 0 -69.5 -4 -98.5 -12s-54.5 -17.667 -76.5 -29l21 -92c23.333 10 46.5 17.5 69.5 22.5s49.5 7.5 79.5 7.5c33.333 0 59 -6.83301 77 -20.5s27 -35.5 27 -65.5v-20h-141
c-56 0 -98.667 -11.667 -128 -35s-44 -59.666 -44 -108.999c0 -48 16 -85.167 48 -111.5s76.333 -39.5 133 -39.5c43.333 0 82.333 8.16699 117 24.5s61 39.5 79 69.5c13.333 -29.333 37 -52.333 71 -69s72.333 -25 115 -25c34.667 0 67.167 3.66699 97.5 11
s58.166 17.333 83.499 30l-21 83c-22 -10 -45.167 -18 -69.5 -24s-50.166 -9 -77.499 -9c-46.667 0 -80.167 10 -100.5 30s-33.166 49.333 -38.499 88h310zM354.998 181.999c0 -72.667 -38.667 -109 -116 -109c-25.333 0 -45 5.83301 -59 17.5s-21 27.5 -21 47.5
c0 40.667 24 61 72 61h124v-17zM585.998 409.999c32 0 54.833 -10.167 68.5 -30.5s20.5 -47.5 20.5 -81.5v-13h-196c3.33301 41.333 13.5 72.5 30.5 93.5s42.5 31.5 76.5 31.5z" />
    <glyph glyph-name="Oslashacute" unicode="&#x1fe;" 
d="M501 859h-165l-77 -132h119zM35 333c0 -68 12 -128.667 36 -182s61 -94.333 111 -123l-45 -112h84l33 83c14.667 -3.33301 29.667 -6 45 -8s31.666 -3 48.999 -3c52.667 0 98.667 8.83301 138 26.5s72 41.834 98 72.501s45.333 67 58 109s19 87.667 19 137
c0 68 -12 128.5 -36 181.5s-61 93.833 -111 122.5l46 113h-84l-34 -83c-14.667 3.33301 -29.667 6 -45 8s-31.666 3 -48.999 3c-53.333 0 -99.5 -8.83301 -138.5 -26.5s-71.5 -41.834 -97.5 -72.501s-45.333 -67.167 -58 -109.5s-19 -87.833 -19 -136.5zM160 333
c0 34.667 3.66699 66.665 11 95.998s18.666 54.5 33.999 75.5s34.833 37.333 58.5 49s51.834 17.5 84.501 17.5c9.33301 0 18.333 -0.666992 27 -2s17 -3 25 -5l-173 -427c-23.333 20.667 -40.333 47.834 -51 81.501s-16 71.834 -16 114.501zM348 94.998
c-18.667 0 -36 1.99902 -52 5.99902l173 427c23.333 -21.333 40.333 -48.666 51 -81.999s16 -71 16 -113c0 -35.333 -3.66699 -67.5 -11 -96.5s-18.666 -54 -33.999 -75s-34.833 -37.333 -58.5 -49s-51.834 -17.5 -84.501 -17.5z" />
    <glyph glyph-name="oslashacute" unicode="&#x1ff;" horiz-adv-x="521" 
d="M182 546h118l91 152h-155zM491 242c0 50 -8.99805 94.166 -26.998 132.499s-45 67.833 -81 88.5l44 105h-62l-35 -83c-21.333 6 -44.333 9 -69 9c-38 0 -71.333 -6.33301 -100 -19s-52.834 -30.167 -72.501 -52.5s-34.334 -48.833 -44.001 -79.5
s-14.5 -64.334 -14.5 -101.001c0 -50 8.83301 -94.167 26.5 -132.5s44.5 -68.166 80.5 -89.499l-43 -104h63l34 83c20.667 -6 44 -9 70 -9c38 0 71.333 6.33301 100 19s52.667 30.167 72 52.5s33.833 48.833 43.5 79.5s14.5 64.334 14.5 101.001zM152.002 241.999
c0 50 8.66699 88.332 26 114.999s45 40 83 40c12.667 0 23 -1.33301 31 -4l-112 -270c-18.667 26.667 -28 66.334 -28 119.001zM369.002 241.998c0 -50 -8.49902 -88.334 -25.499 -115.001s-44.5 -40 -82.5 -40c-12.667 0 -23.334 1 -32.001 3l112 270
c18.667 -25.333 28 -64.666 28 -117.999z" />
    <glyph glyph-name="Scommaaccent" unicode="&#x218;" horiz-adv-x="566" 
d="M534 190c0 32 -4.83301 59.002 -14.5 81.002s-24 40.667 -43 56s-42.333 28.166 -70 38.499s-59.5 19.833 -95.5 28.5c-27.333 6.66699 -50.333 13 -69 19s-33.834 12.5 -45.501 19.5s-20.167 15.333 -25.5 25s-8 21.5 -8 35.5c0 32 10.5 53.833 31.5 65.5
s52.167 17.5 93.5 17.5c35.333 0 70.166 -4.16699 104.499 -12.5s65.833 -18.833 94.5 -31.5l23 100c-32.667 15.333 -67 26.833 -103 34.5s-76.333 11.5 -121 11.5c-37.333 0 -71.166 -3.33301 -101.499 -10s-56.333 -17.834 -78 -33.501s-38.5 -36.167 -50.5 -61.5
s-18 -56.333 -18 -93c0 -29.333 4.66699 -54.833 14 -76.5s23.5 -40.5 42.5 -56.5s42.333 -29.333 70 -40s60.167 -20 97.5 -28c26.667 -6 49.334 -11.833 68.001 -17.5s33.667 -12.334 45 -20.001s19.666 -16.667 24.999 -27s8 -23.166 8 -38.499
c0 -31.333 -11.833 -53.333 -35.5 -66s-55.5 -19 -95.5 -19c-33.333 0 -68.166 4.33301 -104.499 13s-71.5 20 -105.5 34l-27 -101c34.667 -14.667 73 -26.5 115 -35.5s83 -13.5 123 -13.5c80.667 0 143.5 17.667 188.5 53s67.5 85 67.5 149zM360 -71.998h-140l-32 -178h102
z" />
    <glyph glyph-name="scommaaccent" unicode="&#x219;" horiz-adv-x="438" 
d="M410 151c0 22 -3.83105 40.6641 -11.498 55.9971s-18.334 28.5 -32.001 39.5s-30.167 20.5 -49.5 28.5s-40.333 15.333 -63 22c-18.667 5.33301 -34.334 10 -47.001 14s-23 8.33301 -31 13s-13.833 9.83398 -17.5 15.501s-5.5 12.834 -5.5 21.501
c0 16.667 6.16699 28 18.5 34s30.5 9 54.5 9c26 0 51.167 -3 75.5 -9s46.166 -13.333 65.499 -22l22 88c-22 10.667 -46.5 18.834 -73.5 24.501s-58.167 8.5 -93.5 8.5c-60 0 -106.5 -11.833 -139.5 -35.5s-49.5 -60.5 -49.5 -110.5c0 -20 2.83301 -37.667 8.5 -53
s15.334 -29.166 29.001 -41.499s32.167 -23.833 55.5 -34.5s52.666 -21 87.999 -31c28 -8 47.667 -15.833 59 -23.5s17 -18.834 17 -33.501c0 -33.333 -24.667 -50 -74 -50c-25.333 0 -51 3.16699 -77 9.5s-51.667 14.5 -77 24.5l-26 -88c28 -11.333 58 -20.333 90 -27
s62.667 -10 92 -10c60.667 0 107.834 14.167 141.501 42.5s50.5 67.833 50.5 118.5zM295.002 -72.0029h-140l-32 -178h102z" />
    <glyph glyph-name="circumflex" unicode="&#x2c6;" horiz-adv-x="469" 
d="M294 698h-120l-104 -152h111l53 82l53 -82h112z" />
    <glyph glyph-name="caron" unicode="&#x2c7;" horiz-adv-x="469" 
d="M399 698h-112l-53 -82l-53 82h-111l104 -152h120z" />
    <glyph glyph-name="breve" unicode="&#x2d8;" horiz-adv-x="452" 
d="M383 686h-89c0 -20.667 -5.66699 -36.834 -17 -48.501s-28.333 -17.5 -51 -17.5s-39.667 5.83301 -51 17.5s-17 27.834 -17 48.501h-88c0 -22 3.83301 -41.667 11.5 -59s18.5 -32 32.5 -44s30.5 -21 49.5 -27s39.833 -9 62.5 -9s43.667 3 63 9s36 15 50 27
s24.833 26.667 32.5 44s11.5 37 11.5 59z" />
    <glyph glyph-name="dotaccent" unicode="&#x2d9;" horiz-adv-x="288" 
d="M70 617c0 -20 6.66699 -37.5 20 -52.5s31.333 -22.5 54 -22.5c23.333 0 41.666 7.5 54.999 22.5s20 32.5 20 52.5c0 21.333 -6.66699 39.166 -20 53.499s-31.666 21.5 -54.999 21.5c-22.667 0 -40.667 -7.16699 -54 -21.5s-20 -32.166 -20 -53.499z" />
    <glyph glyph-name="ring" unicode="&#x2da;" horiz-adv-x="338" 
d="M268 634c0 23.333 -8 43.666 -24 60.999s-41 26 -75 26s-59 -8.66699 -75 -26s-24 -37.666 -24 -60.999s8 -43.833 24 -61.5s41 -26.5 75 -26.5s59 8.83301 75 26.5s24 38.167 24 61.5zM125 634c0 13.333 4 23.666 12 30.999s18.667 11 32 11s24 -3.66699 32 -11
s12 -17.666 12 -30.999s-4 -23.666 -12 -30.999s-18.667 -11 -32 -11s-24 3.66699 -32 11s-12 17.666 -12 30.999z" />
    <glyph glyph-name="ogonek" unicode="&#x2db;" horiz-adv-x="321" 
d="M242 -113c-4.66699 -1.33301 -10.001 -2.66504 -16.001 -3.99805s-12.333 -2 -19 -2c-25.333 0 -38 11 -38 33c0 10 2.83301 19.333 8.5 28s12.834 16.667 21.501 24s17.667 13.833 27 19.5s18 10.5 26 14.5h-116c-16 -10.667 -31 -24.334 -45 -41.001
s-21 -37.667 -21 -63c0 -24.667 8 -44.834 24 -60.501s40.667 -23.5 74 -23.5c17.333 0 33.333 1.5 48 4.5s26.667 6.5 36 10.5z" />
    <glyph glyph-name="tilde" unicode="&#x2dc;" horiz-adv-x="503" 
d="M355 689c-1.33301 -4 -2.99707 -8.49805 -4.99707 -13.498s-4.33301 -9.83301 -7 -14.5s-6.16699 -8.5 -10.5 -11.5s-9.83301 -4.5 -16.5 -4.5c-8 0 -17.167 2.16699 -27.5 6.5s-21.5 9.33301 -33.5 15s-24.5 10.667 -37.5 15s-25.5 6.5 -37.5 6.5
c-32 0 -55.5 -9 -70.5 -27s-28.167 -45 -39.5 -81l77 -29c4.66699 12.667 9.83398 23.5 15.501 32.5s15.167 13.5 28.5 13.5c9.33301 0 19.666 -2.33301 30.999 -7s23.166 -9.83398 35.499 -15.501s24.666 -10.834 36.999 -15.501s24.166 -7 35.499 -7
c16 0 29.5 2.83301 40.5 8.5s20.333 13.5 28 23.5s14.167 21.5 19.5 34.5s10.333 27.167 15 42.5z" />
    <glyph glyph-name="hungarumlaut" unicode="&#x2dd;" horiz-adv-x="523" 
d="M453 698h-140l-57 -152h113zM248 698h-131l-47 -152h108z" />
    <glyph glyph-name="uni0312" unicode="&#x312;" horiz-adv-x="318" 
d="M70 546h144l34 152h-113z" />
    <glyph glyph-name="uni0315" unicode="&#x315;" horiz-adv-x="320" 
d="M250 666h-142l-38 -223h94z" />
    <glyph glyph-name="uni0326" unicode="&#x326;" horiz-adv-x="311" 
d="M242 -72h-140l-32 -178h102z" />
    <glyph glyph-name="uni037E" unicode="&#x37e;" horiz-adv-x="295" 
d="M163 274c23.333 0 42.166 7.16699 56.499 21.5s21.5 32.833 21.5 55.5c0 23.333 -7.16699 42 -21.5 56s-33.166 21 -56.499 21c-22.667 0 -41.167 -7 -55.5 -21s-21.5 -32.667 -21.5 -56c0 -22.667 7.16699 -41.167 21.5 -55.5s32.833 -21.5 55.5 -21.5zM88 134l-62 -280
h95l112 280h-145z" />
    <glyph glyph-name="tonos" unicode="&#x384;" horiz-adv-x="319" 
d="M78 546h111l77 152h-156z" />
    <glyph glyph-name="dieresistonos" unicode="&#x385;" horiz-adv-x="539" 
d="M132 556c18.667 0 33 5.66699 43 17s15 24.666 15 39.999c0 16 -5 29.5 -15 40.5s-24.333 16.5 -43 16.5s-33 -5.5 -43 -16.5s-15 -24.5 -15 -40.5c0 -15.333 5 -28.666 15 -39.999s24.333 -17 43 -17zM211 549h75l69 167h-118zM408 556c18 0 32.167 5.66699 42.5 17
s15.5 24.666 15.5 39.999c0 16 -5.16699 29.5 -15.5 40.5s-24.5 16.5 -42.5 16.5c-18.667 0 -33.167 -5.5 -43.5 -16.5s-15.5 -24.5 -15.5 -40.5c0 -15.333 5.16699 -28.666 15.5 -39.999s24.833 -17 43.5 -17z" />
    <glyph glyph-name="Alphatonos" unicode="&#x386;" horiz-adv-x="645" 
d="M9 0h127l53 157h267l53 -157h127l-244 666h-139zM224 262l99 292l98 -292h-197zM11 515h111l77 152h-156z" />
    <glyph glyph-name="anoteleia" unicode="&#x387;" horiz-adv-x="268" 
d="M60 273c0 -22 6.83301 -39.833 20.5 -53.5s31.5 -20.5 53.5 -20.5s39.833 6.83301 53.5 20.5s20.5 31.5 20.5 53.5s-6.83301 39.833 -20.5 53.5s-31.5 20.5 -53.5 20.5s-39.833 -6.83301 -53.5 -20.5s-20.5 -31.5 -20.5 -53.5z" />
    <glyph glyph-name="Epsilontonos" unicode="&#x388;" horiz-adv-x="564" 
d="M70 0h448v108h-323v180h302v108h-302v162h323v108h-448v-666zM-158 515h111l77 152h-156z" />
    <glyph glyph-name="Etatonos" unicode="&#x389;" horiz-adv-x="682" 
d="M70 0h125v282h292v-282h125v666h-125v-273h-292v273h-125v-666zM-159 515h111l77 152h-156z" />
    <glyph glyph-name="Iotatonos" unicode="&#x38a;" horiz-adv-x="275" 
d="M75 0h125v666h-125v-666zM-159 515h111l77 152h-156z" />
    <glyph glyph-name="Omicrontonos" unicode="&#x38c;" 
d="M348 -12c52.667 0 98.667 8.83301 138 26.5s72 41.834 98 72.501s45.333 67 58 109s19 87.667 19 137c0 48.667 -6.33301 94.167 -19 136.5s-32 78.833 -58 109.5s-58.667 54.834 -98 72.501s-85.333 26.5 -138 26.5c-53.333 0 -99.5 -8.83301 -138.5 -26.5
s-71.5 -41.834 -97.5 -72.501s-45.333 -67.167 -58 -109.5s-19 -87.833 -19 -136.5c0 -49.333 6.33301 -95 19 -137s32 -78.333 58 -109s58.5 -54.834 97.5 -72.501s85.167 -26.5 138.5 -26.5zM348 95c-32.667 0 -60.834 5.83301 -84.501 17.5s-43.167 28 -58.5 49
s-26.666 46 -33.999 75s-11 61.167 -11 96.5c0 34.667 3.66699 66.667 11 96s18.666 54.5 33.999 75.5s34.833 37.333 58.5 49s51.834 17.5 84.501 17.5s60.834 -5.83301 84.501 -17.5s43.167 -28 58.5 -49s26.666 -46.167 33.999 -75.5s11 -61.333 11 -96
c0 -35.333 -3.66699 -67.5 -11 -96.5s-18.666 -54 -33.999 -75s-34.833 -37.333 -58.5 -49s-51.834 -17.5 -84.501 -17.5zM-109 515h111l77 152h-156z" />
    <glyph glyph-name="Upsilontonos" unicode="&#x38e;" horiz-adv-x="559" 
d="M217 0h125v263l215 403h-132l-146 -293l-145 293h-132l215 -403v-263zM-209 515h111l77 152h-156z" />
    <glyph glyph-name="Omegatonos" unicode="&#x38f;" horiz-adv-x="743" 
d="M665 372c0 46.667 -7.16797 88.834 -21.501 126.501s-35 69.834 -62 96.501s-59.833 47.167 -98.5 61.5s-82.334 21.5 -131.001 21.5c-48 0 -91.333 -7.16699 -130 -21.5s-71.5 -34.833 -98.5 -61.5s-47.667 -58.834 -62 -96.501s-21.5 -79.834 -21.5 -126.501
c0 -60 10.833 -111.833 32.5 -155.5s49.834 -83.167 84.501 -118.5h-106v-98h238v98c-38 30.667 -68.667 68 -92 112s-35 95 -35 153c0 32.667 4 62.334 12 89.001s20 49.5 36 68.5s35.833 33.667 59.5 44s51.167 15.5 82.5 15.5c32 0 59.833 -5.16699 83.5 -15.5
s43.5 -25 59.5 -44s28 -41.833 36 -68.5s12 -56.334 12 -89.001c0 -58 -11.667 -109 -35 -153s-54 -81.333 -92 -112v-98h238v98h-106c34.667 35.333 62.834 74.833 84.501 118.5s32.5 95.5 32.5 155.5zM-96.001 515h111l77 152h-156z" />
    <glyph glyph-name="iotadieresistonos" unicode="&#x390;" horiz-adv-x="309" 
d="M59 122c0 -43.333 10.501 -76.166 31.501 -98.499s53.833 -33.5 98.5 -33.5c22 0 40.667 0.833008 56 2.5s29.666 4.5 42.999 8.5l-2 46c-0.666992 11.333 -1 22.166 -1 32.499v17.5c-9.33301 -2 -19 -3.33301 -29 -4s-18.667 -1 -26 -1c-17.333 0 -29 3.5 -35 10.5
s-9 19.167 -9 36.5v345h-127v-362zM3.00098 556c18.667 0 33 5.66699 43 17s15 24.666 15 39.999c0 16 -5 29.5 -15 40.5s-24.333 16.5 -43 16.5s-33 -5.5 -43 -16.5s-15 -24.5 -15 -40.5c0 -15.333 5 -28.666 15 -39.999s24.333 -17 43 -17zM82.001 549h75l69 167h-118z
M279.001 556c18 0 32.167 5.66699 42.5 17s15.5 24.666 15.5 39.999c0 16 -5.16699 29.5 -15.5 40.5s-24.5 16.5 -42.5 16.5c-18.667 0 -33.167 -5.5 -43.5 -16.5s-15.5 -24.5 -15.5 -40.5c0 -15.333 5.16699 -28.666 15.5 -39.999s24.833 -17 43.5 -17z" />
    <glyph glyph-name="Alpha" unicode="&#x391;" horiz-adv-x="645" 
d="M9 0h127l53 157h267l53 -157h127l-244 666h-139zM224 262l99 292l98 -292h-197z" />
    <glyph glyph-name="Beta" unicode="&#x392;" horiz-adv-x="613" 
d="M70 0l296 0.000976562c32 0 61.167 4.33301 87.5 13s48.833 21 67.5 37s33 35.167 43 57.5s15 47.166 15 74.499c0 45.333 -12.833 81 -38.5 107s-59.5 43.333 -101.5 52c40 14 69.833 35.167 89.5 63.5s29.5 61.5 29.5 99.5c0 50 -16.5 89.5 -49.5 118.5
s-80.5 43.5 -142.5 43.5h-296v-666zM193 384.001v184h139c34 0 59.5 -7.66699 76.5 -23s25.5 -36.333 25.5 -63c0 -26 -8.33301 -48.833 -25 -68.5s-42.667 -29.5 -78 -29.5h-138zM193 98.001l0.000976562 188.001h149c37.333 0 65.666 -8.33301 84.999 -25s29 -39 29 -67
c0 -28.667 -8.66699 -51.834 -26 -69.501s-44 -26.5 -80 -26.5h-157z" />
    <glyph glyph-name="Gamma" unicode="&#x393;" horiz-adv-x="525" 
d="M70 0h125v558h307v108h-432v-666z" />
    <glyph glyph-name="uni0394" unicode="&#x394;" horiz-adv-x="642" 
d="M16 0h610v47l-239 619h-132l-239 -619v-47zM164 107l155 445l156 -445h-311z" />
    <glyph glyph-name="Epsilon" unicode="&#x395;" horiz-adv-x="564" 
d="M70 0h448v108h-323v180h302v108h-302v162h323v108h-448v-666z" />
    <glyph glyph-name="Zeta" unicode="&#x396;" horiz-adv-x="579" 
d="M48 0h488v108h-342l332 447v111h-468v-108h322l-332 -447v-111z" />
    <glyph glyph-name="Eta" unicode="&#x397;" horiz-adv-x="682" 
d="M70 0h125v282h292v-282h125v666h-125v-273h-292v273h-125v-666z" />
    <glyph glyph-name="Theta" unicode="&#x398;" 
d="M348 -12c52.667 0 98.667 8.83301 138 26.5s72 41.834 98 72.501s45.333 67 58 109s19 87.667 19 137c0 48.667 -6.33301 94.167 -19 136.5s-32 78.833 -58 109.5s-58.667 54.834 -98 72.501s-85.333 26.5 -138 26.5c-53.333 0 -99.5 -8.83301 -138.5 -26.5
s-71.5 -41.834 -97.5 -72.501s-45.333 -67.167 -58 -109.5s-19 -87.833 -19 -136.5c0 -49.333 6.33301 -95 19 -137s32 -78.333 58 -109s58.5 -54.834 97.5 -72.501s85.167 -26.5 138.5 -26.5zM348 95c-32.667 0 -60.834 5.83301 -84.501 17.5s-43.167 28 -58.5 49
s-26.666 46 -33.999 75s-11 61.167 -11 96.5c0 34.667 3.66699 66.667 11 96s18.666 54.5 33.999 75.5s34.833 37.333 58.5 49s51.834 17.5 84.501 17.5s60.834 -5.83301 84.501 -17.5s43.167 -28 58.5 -49s26.666 -46.167 33.999 -75.5s11 -61.333 11 -96
c0 -35.333 -3.66699 -67.5 -11 -96.5s-18.666 -54 -33.999 -75s-34.833 -37.333 -58.5 -49s-51.834 -17.5 -84.501 -17.5zM220 296h254v88h-254v-88z" />
    <glyph glyph-name="Iota" unicode="&#x399;" horiz-adv-x="275" 
d="M75 0h125v666h-125v-666z" />
    <glyph glyph-name="Kappa" unicode="&#x39a;" horiz-adv-x="623" 
d="M70 0h125v316l255 -316h161l-287 341l283 325h-161l-251 -300v300h-125v-666z" />
    <glyph glyph-name="Lambda" unicode="&#x39b;" horiz-adv-x="613" 
d="M4 0h128l175 551l173 -551h129l-229 666h-145z" />
    <glyph glyph-name="Mu" unicode="&#x39c;" horiz-adv-x="823" 
d="M69 0h121v422l160 -338h123l160 338v-422h121v666h-125l-217 -460l-217 460h-126v-666z" />
    <glyph glyph-name="Nu" unicode="&#x39d;" horiz-adv-x="707" 
d="M70 0h121v459l322 -459h124v666h-122v-459l-321 459h-124v-666z" />
    <glyph glyph-name="Xi" unicode="&#x39e;" horiz-adv-x="575" 
d="M46 0h482v112h-482v-112zM106 284h363v108h-363v-108zM46 555h483v111h-483v-111z" />
    <glyph glyph-name="Omicron" unicode="&#x39f;" 
d="M348 -12c52.667 0 98.667 8.83301 138 26.5s72 41.834 98 72.501s45.333 67 58 109s19 87.667 19 137c0 48.667 -6.33301 94.167 -19 136.5s-32 78.833 -58 109.5s-58.667 54.834 -98 72.501s-85.333 26.5 -138 26.5c-53.333 0 -99.5 -8.83301 -138.5 -26.5
s-71.5 -41.834 -97.5 -72.501s-45.333 -67.167 -58 -109.5s-19 -87.833 -19 -136.5c0 -49.333 6.33301 -95 19 -137s32 -78.333 58 -109s58.5 -54.834 97.5 -72.501s85.167 -26.5 138.5 -26.5zM348 95c-32.667 0 -60.834 5.83301 -84.501 17.5s-43.167 28 -58.5 49
s-26.666 46 -33.999 75s-11 61.167 -11 96.5c0 34.667 3.66699 66.667 11 96s18.666 54.5 33.999 75.5s34.833 37.333 58.5 49s51.834 17.5 84.501 17.5s60.834 -5.83301 84.501 -17.5s43.167 -28 58.5 -49s26.666 -46.167 33.999 -75.5s11 -61.333 11 -96
c0 -35.333 -3.66699 -67.5 -11 -96.5s-18.666 -54 -33.999 -75s-34.833 -37.333 -58.5 -49s-51.834 -17.5 -84.501 -17.5z" />
    <glyph glyph-name="Pi" unicode="&#x3a0;" horiz-adv-x="674" 
d="M70 0h125v559h284v-559h126v666h-535v-666z" />
    <glyph glyph-name="Rho" unicode="&#x3a1;" horiz-adv-x="601" 
d="M70 0h125.001v242h164c33.333 0 63.666 5.5 90.999 16.5s50.5 26.167 69.5 45.5s33.667 42 44 68s15.5 53.667 15.5 83c0 30 -5 57.833 -15 83.5s-24.5 48 -43.5 67s-42 33.833 -69 44.5s-57.833 16 -92.5 16h-289v-666zM195.001 343v222h147
c34 0 61.167 -9.5 81.5 -28.5s30.5 -46.167 30.5 -81.5s-10 -62.833 -30 -82.5s-47 -29.5 -81 -29.5h-148z" />
    <glyph glyph-name="Sigma" unicode="&#x3a3;" horiz-adv-x="605" 
d="M36 0h522v108h-350l176 235l-154 215h313v108h-492v-84l185 -256l-200 -260v-66z" />
    <glyph glyph-name="Tau" unicode="&#x3a4;" horiz-adv-x="551" 
d="M213 0h125v558h192v108h-508v-108h191v-558z" />
    <glyph glyph-name="Upsilon" unicode="&#x3a5;" horiz-adv-x="559" 
d="M217 0h125v263l215 403h-132l-146 -293l-145 293h-132l215 -403v-263z" />
    <glyph glyph-name="Phi" unicode="&#x3a6;" horiz-adv-x="790" 
d="M332 0h126v66c48 2.66699 90.5 11.167 127.5 25.5s68 33.5 93 57.5s44 51.833 57 83.5s19.5 66.5 19.5 104.5c0 37.333 -6.5 72 -19.5 104s-32 59.833 -57 83.5s-56 43 -93 58s-79.5 24.167 -127.5 27.5v60h-126v-60c-48 -3.33301 -90.5 -12.333 -127.5 -27
s-68 -34 -93 -58s-44 -51.833 -57 -83.5s-19.5 -66.5 -19.5 -104.5s6.5 -72.833 19.5 -104.5s32 -59.5 57 -83.5s56 -43.167 93 -57.5s79.5 -22.833 127.5 -25.5v-66zM332 169c-54.667 2.66699 -97.501 18.168 -128.501 46.501s-46.5 68.833 -46.5 121.5
c0 22.667 3.83301 44 11.5 64s18.834 37.5 33.501 52.5s33 27.167 55 36.5s47 14.666 75 15.999v-337zM457.999 169.001l-0.000976562 336.999c28 -1.33301 53 -6.66602 75 -15.999s40.333 -21.5 55 -36.5s25.834 -32.5 33.501 -52.5s11.5 -41.333 11.5 -64
c0 -53.333 -15.667 -94 -47 -122s-74 -43.333 -128 -46z" />
    <glyph glyph-name="Chi" unicode="&#x3a7;" horiz-adv-x="593" 
d="M11 0h137l149 237l148 -237h137l-218 338l210 328h-136l-141 -225l-142 225h-136l209 -328z" />
    <glyph glyph-name="Psi" unicode="&#x3a8;" horiz-adv-x="807" 
d="M341 0h126v121c96.667 4.66699 166.167 30.167 208.5 76.5s63.5 113.166 63.5 200.499v268h-124v-248c0 -68 -11.667 -117.333 -35 -148s-61 -47.667 -113 -51v447h-126v-446c-52 2.66699 -89.333 19.5 -112 50.5s-34 80.167 -34 147.5v248h-125v-268
c0 -43.333 5 -81.666 15 -114.999s26 -61.666 48 -84.999s50.167 -41.333 84.5 -54s75.5 -20.334 123.5 -23.001v-121z" />
    <glyph glyph-name="uni03A9" unicode="&#x3a9;" horiz-adv-x="705" 
d="M665 372c0 46.667 -7.16797 88.834 -21.501 126.501s-35 69.834 -62 96.501s-59.833 47.167 -98.5 61.5s-82.334 21.5 -131.001 21.5c-48 0 -91.333 -7.16699 -130 -21.5s-71.5 -34.833 -98.5 -61.5s-47.667 -58.834 -62 -96.501s-21.5 -79.834 -21.5 -126.501
c0 -60 10.833 -111.833 32.5 -155.5s49.834 -83.167 84.501 -118.5h-106v-98h238v98c-38 30.667 -68.667 68 -92 112s-35 95 -35 153c0 32.667 4 62.334 12 89.001s20 49.5 36 68.5s35.833 33.667 59.5 44s51.167 15.5 82.5 15.5c32 0 59.833 -5.16699 83.5 -15.5
s43.5 -25 59.5 -44s28 -41.833 36 -68.5s12 -56.334 12 -89.001c0 -58 -11.667 -109 -35 -153s-54 -81.333 -92 -112v-98h238v98h-106c34.667 35.333 62.834 74.833 84.501 118.5s32.5 95.5 32.5 155.5z" />
    <glyph glyph-name="Iotadieresis" unicode="&#x3aa;" horiz-adv-x="275" 
d="M75 0h125v666h-125v-666zM175 793c0 -18 5.66699 -32.667 17 -44s27.333 -17 48 -17s36.5 5.66699 47.5 17s16.5 26 16.5 44c0 18.667 -5.5 33.667 -16.5 45s-26.833 17 -47.5 17s-36.667 -5.66699 -48 -17s-17 -26.333 -17 -45zM-27 793c0 -18 5.5 -32.667 16.5 -44
s26.833 -17 47.5 -17s36.5 5.66699 47.5 17s16.5 26 16.5 44c0 18.667 -5.5 33.667 -16.5 45s-26.833 17 -47.5 17s-36.5 -5.66699 -47.5 -17s-16.5 -26.333 -16.5 -45z" />
    <glyph glyph-name="Upsilondieresis" unicode="&#x3ab;" horiz-adv-x="559" 
d="M217 0h125v263l215 403h-132l-146 -293l-145 293h-132l215 -403v-263zM316 793c0 -18 5.66699 -32.667 17 -44s27.333 -17 48 -17s36.5 5.66699 47.5 17s16.5 26 16.5 44c0 18.667 -5.5 33.667 -16.5 45s-26.833 17 -47.5 17s-36.667 -5.66699 -48 -17
s-17 -26.333 -17 -45zM114 793c0 -18 5.5 -32.667 16.5 -44s26.833 -17 47.5 -17s36.5 5.66699 47.5 17s16.5 26 16.5 44c0 18.667 -5.5 33.667 -16.5 45s-26.833 17 -47.5 17s-36.5 -5.66699 -47.5 -17s-16.5 -26.333 -16.5 -45z" />
    <glyph glyph-name="alphatonos" unicode="&#x3ac;" horiz-adv-x="593" 
d="M225 -10c30 0 58.3311 6.33398 84.998 19.001s51.334 38 74.001 76c10 -36 25.167 -60.667 45.5 -74s47.5 -20 81.5 -20c10 0 20.667 1 32 3s22 4.33301 32 7l-1 15c-0.666992 10 -1.16699 20.667 -1.5 32s-0.833008 22 -1.5 32l-1 15
c-5.33301 -0.666992 -10 -1.16699 -14 -1.5s-7.66699 -0.5 -11 -0.5c-24 0 -40.5 8.66699 -49.5 26s-13.5 43.666 -13.5 78.999c0 47.333 5.66699 94.166 17 140.499s24.666 87.5 39.999 123.5l-116 32c-6 -9.33301 -12.167 -22.5 -18.5 -39.5
s-11.166 -34.167 -14.499 -51.5c-15.333 26 -34.833 47.667 -58.5 65s-54.5 26 -92.5 26c-33.333 0 -62.833 -6.33301 -88.5 -19s-47.167 -30.5 -64.5 -53.5s-30.666 -50.333 -39.999 -82s-14 -66.167 -14 -103.5c0 -79.333 17.5 -140.166 52.5 -182.499
s81.833 -63.5 140.5 -63.5zM258.998 92.001c-33.333 0 -58.167 13.002 -74.5 39.002s-24.5 63 -24.5 111c0 50 9.33301 87.667 28 113s42.667 38 72 38c30.667 0 55.667 -12 75 -36s29 -58.333 29 -103c0 -22.667 -2.33301 -43.834 -7 -63.501s-11.5 -36.834 -20.5 -51.501
s-20 -26.167 -33 -34.5s-27.833 -12.5 -44.5 -12.5zM231.997 546.003h111l77 152h-156z" />
    <glyph glyph-name="epsilontonos" unicode="&#x3ad;" horiz-adv-x="466" 
d="M232 -10c36.667 0 71.666 2.99512 104.999 8.99512s67.333 16.667 102 32l-18 92c-24 -7.33301 -50.5 -14.166 -79.5 -20.499s-58.833 -9.5 -89.5 -9.5c-30 0 -52.333 4.66699 -67 14s-22 22.333 -22 39s6.33301 29.5 19 38.5s34.667 13.5 66 13.5h82v97h-73
c-28 0 -47.833 4.5 -59.5 13.5s-17.5 20.167 -17.5 33.5c0 16.667 6.5 29.667 19.5 39s33.5 14 61.5 14c25.333 0 48.833 -2.5 70.5 -7.5s44.834 -12.167 69.501 -21.5l22 96c-21.333 10 -46.833 17.833 -76.5 23.5s-62.5 8.5 -98.5 8.5
c-59.333 0 -106.833 -12.5 -142.5 -37.5s-53.5 -58.167 -53.5 -99.5c0 -26 6.83301 -47 20.5 -63s34.834 -29.667 63.501 -41c-18.667 -5.33301 -34.334 -12.666 -47.001 -21.999s-23 -19.666 -31 -30.999s-13.833 -23.5 -17.5 -36.5s-5.5 -25.5 -5.5 -37.5
c0 -27.333 5.5 -49.666 16.5 -66.999s25.667 -31.166 44 -41.499s39.333 -17.5 63 -21.5s48.167 -6 73.5 -6zM198.999 545.995h111l77 152h-156z" />
    <glyph glyph-name="etatonos" unicode="&#x3ae;" horiz-adv-x="578" 
d="M85 0l127 -0.000976562v267c0 21.333 2.83301 39.666 8.5 54.999s13.334 28 23.001 38s20.667 17.333 33 22s25.5 7 39.5 7c10.667 0 20.5 -1.33301 29.5 -4s17 -7.16699 24 -13.5s12.5 -14.833 16.5 -25.5s6 -23.667 6 -39v-485h127v506
c0 56.667 -12.667 98.5 -38 125.5s-66.333 40.5 -123 40.5c-29.333 0 -58.833 -7.83301 -88.5 -23.5s-56.834 -43.167 -81.501 -82.5c-4.66699 23.333 -14.334 45.333 -29.001 66s-34 34.334 -58 41.001l-75 -81c12 -9.33301 21.667 -18.166 29 -26.499
s13.333 -18.333 18 -30s7.83398 -25.5 9.50098 -41.5s2.5 -36 2.5 -60v-256zM215 545.999h111l77 152h-156z" />
    <glyph glyph-name="iotatonos" unicode="&#x3af;" horiz-adv-x="309" 
d="M59 122c0 -43.333 10.501 -76.166 31.501 -98.499s53.833 -33.5 98.5 -33.5c22 0 40.667 0.833008 56 2.5s29.666 4.5 42.999 8.5l-2 46c-0.666992 11.333 -1 22.166 -1 32.499v17.5c-9.33301 -2 -19 -3.33301 -29 -4s-18.667 -1 -26 -1c-17.333 0 -29 3.5 -35 10.5
s-9 19.167 -9 36.5v345h-127v-362zM66.001 546h111l77 152h-156z" />
    <glyph glyph-name="upsilondieresistonos" unicode="&#x3b0;" horiz-adv-x="534" 
d="M62 203c0 -42 5.66699 -76.834 17 -104.501s26.833 -49.5 46.5 -65.5s42.5 -27.167 68.5 -33.5s53.667 -9.5 83 -9.5c46 0 83.333 8.16699 112 24.5s51.334 37.166 68.001 62.499s28 53.833 34 85.5s9 62.834 9 93.501c0 17.333 -0.666992 36 -2 56s-3.5 40.333 -6.5 61
s-7 41.167 -12 61.5s-11.167 40.166 -18.5 59.499l-122 -33c12.667 -33.333 21.667 -67.5 27 -102.5s8 -74.167 8 -117.5c0 -52 -8 -88.667 -24 -110s-40.333 -32 -73 -32c-30 0 -52.5 9.16699 -67.5 27.5s-22.5 47.5 -22.5 87.5v50c0 28.667 -0.5 54.5 -1.5 77.5
s-2.66699 43.667 -5 62s-5.83301 34.833 -10.5 49.5s-10.334 28.334 -17.001 41.001l-123 -33c10 -21.333 17.833 -49.666 23.5 -84.999s8.5 -82.333 8.5 -141v-32zM130 555.999c18.667 0 33 5.66699 43 17s15 24.666 15 39.999c0 16 -5 29.5 -15 40.5
s-24.333 16.5 -43 16.5s-33 -5.5 -43 -16.5s-15 -24.5 -15 -40.5c0 -15.333 5 -28.666 15 -39.999s24.333 -17 43 -17zM209 548.999h75l69 167h-118zM406 555.999c18 0 32.167 5.66699 42.5 17s15.5 24.666 15.5 39.999c0 16 -5.16699 29.5 -15.5 40.5
s-24.5 16.5 -42.5 16.5c-18.667 0 -33.167 -5.5 -43.5 -16.5s-15.5 -24.5 -15.5 -40.5c0 -15.333 5.16699 -28.666 15.5 -39.999s24.833 -17 43.5 -17z" />
    <glyph glyph-name="alpha" unicode="&#x3b1;" horiz-adv-x="593" 
d="M225 -10c30 0 58.3311 6.33398 84.998 19.001s51.334 38 74.001 76c10 -36 25.167 -60.667 45.5 -74s47.5 -20 81.5 -20c10 0 20.667 1 32 3s22 4.33301 32 7l-1 15c-0.666992 10 -1.16699 20.667 -1.5 32s-0.833008 22 -1.5 32l-1 15
c-5.33301 -0.666992 -10 -1.16699 -14 -1.5s-7.66699 -0.5 -11 -0.5c-24 0 -40.5 8.66699 -49.5 26s-13.5 43.666 -13.5 78.999c0 47.333 5.66699 94.166 17 140.499s24.666 87.5 39.999 123.5l-116 32c-6 -9.33301 -12.167 -22.5 -18.5 -39.5
s-11.166 -34.167 -14.499 -51.5c-15.333 26 -34.833 47.667 -58.5 65s-54.5 26 -92.5 26c-33.333 0 -62.833 -6.33301 -88.5 -19s-47.167 -30.5 -64.5 -53.5s-30.666 -50.333 -39.999 -82s-14 -66.167 -14 -103.5c0 -79.333 17.5 -140.166 52.5 -182.499
s81.833 -63.5 140.5 -63.5zM258.998 92.001c-33.333 0 -58.167 13.002 -74.5 39.002s-24.5 63 -24.5 111c0 50 9.33301 87.667 28 113s42.667 38 72 38c30.667 0 55.667 -12 75 -36s29 -58.333 29 -103c0 -22.667 -2.33301 -43.834 -7 -63.501s-11.5 -36.834 -20.5 -51.501
s-20 -26.167 -33 -34.5s-27.833 -12.5 -44.5 -12.5z" />
    <glyph glyph-name="beta" unicode="&#x3b2;" horiz-adv-x="568" 
d="M65 -178l127 0.00292969v224c15.333 -18.667 34 -32.667 56 -42s48.667 -14 80 -14c40 0 73.333 7.33301 100 22s48 32.5 64 53.5s27.333 43.167 34 66.5s10 43.666 10 60.999c0 39.333 -8.83301 74.666 -26.5 105.999s-50.167 55.666 -97.5 72.999
c22.667 13.333 41.5 31.5 56.5 54.5s22.5 51.833 22.5 86.5c0 16 -3 33.5 -9 52.5s-16.5 36.667 -31.5 53s-35.333 30 -61 41s-58.5 16.5 -98.5 16.5c-26 0 -52.333 -4 -79 -12s-51 -21.167 -73 -39.5s-39.833 -42.833 -53.5 -73.5s-20.5 -68.667 -20.5 -114v-615z
M303 92.0029c-19.333 0 -35.999 2.66797 -49.999 8.00098s-25.5 12.166 -34.5 20.499s-15.667 17.5 -20 27.5s-6.5 20 -6.5 30v272c0 42 9.16699 73 27.5 93s42.166 30 71.499 30c25.333 0 45.833 -7.16699 61.5 -21.5s23.5 -36.5 23.5 -66.5
c0 -23.333 -6.5 -43.333 -19.5 -60s-32.5 -25 -58.5 -25h-36v-95h39c36 0 62.167 -10.333 78.5 -31s24.5 -46.667 24.5 -78c0 -12 -1.66699 -24.167 -5 -36.5s-9 -23.5 -17 -33.5s-18.5 -18.167 -31.5 -24.5s-28.833 -9.5 -47.5 -9.5z" />
    <glyph glyph-name="gamma" unicode="&#x3b3;" horiz-adv-x="563" 
d="M240 -174l126.998 0.000976562v174l187 484h-130l-116 -360l-94 276c-12 35.333 -26.5 59.666 -43.5 72.999s-42.167 20 -75.5 20c-14 0 -27.667 -1 -41 -3s-25.666 -4.66699 -36.999 -8v-17.5c0 -10.333 0.333008 -21.166 1 -32.499
c0.666992 -13.333 1.33398 -28.333 2.00098 -45c5.33301 1.33301 10.333 2.33301 15 3s8.33398 1 11.001 1c15.333 0 26.666 -4.83301 33.999 -14.5s16.333 -26.834 27 -51.501l133 -325v-174z" />
    <glyph glyph-name="delta" unicode="&#x3b4;" horiz-adv-x="518" 
d="M250 -10c40.667 0 75.832 6.6709 105.499 20.0039s54.167 31 73.5 53s33.666 47 42.999 75s14 56.667 14 86c0 53.333 -13.333 99.166 -40 137.499s-67 75.166 -121 110.499c-17.333 10.667 -31.333 19.667 -42 27s-19.167 13.666 -25.5 18.999
s-10.666 10.166 -12.999 14.499s-3.5 9.16602 -3.5 14.499c0 8 3.16699 15 9.5 21s17.166 9 32.499 9c21.333 0 45.5 -3.5 72.5 -10.5s51.833 -14.833 74.5 -23.5l20 96c-18 10 -43.167 18.667 -75.5 26s-66.833 11 -103.5 11c-26 0 -49.167 -3.33301 -69.5 -10
s-37.166 -15.5 -50.499 -26.5s-23.5 -24 -30.5 -39s-10.5 -30.5 -10.5 -46.5c0 -10 0.833008 -19.667 2.5 -29s5.33398 -18.666 11.001 -27.999s13.5 -18.833 23.5 -28.5s23.333 -19.834 40 -30.501c-20 -7.33301 -39.333 -17.333 -58 -30s-35.167 -28.167 -49.5 -46.5
s-25.833 -39.333 -34.5 -63s-13 -49.5 -13 -77.5c0 -43.333 6.83301 -79.666 20.5 -108.999s31 -53 52 -71s44.5 -31 70.5 -39s51 -12 75 -12zM260.998 92.0039c-17.333 0 -32.5 3.33203 -45.5 9.99902s-23.833 16 -32.5 28s-15 26 -19 42s-6 33 -6 51
c0 42 9.16699 76.333 27.5 103s44.5 45.334 78.5 56.001c34.667 -18 59.667 -40.5 75 -67.5s23 -57.833 23 -92.5c0 -43.333 -10 -75.833 -30 -97.5s-43.667 -32.5 -71 -32.5z" />
    <glyph glyph-name="epsilon" unicode="&#x3b5;" horiz-adv-x="466" 
d="M232 -10c36.667 0 71.666 2.99512 104.999 8.99512s67.333 16.667 102 32l-18 92c-24 -7.33301 -50.5 -14.166 -79.5 -20.499s-58.833 -9.5 -89.5 -9.5c-30 0 -52.333 4.66699 -67 14s-22 22.333 -22 39s6.33301 29.5 19 38.5s34.667 13.5 66 13.5h82v97h-73
c-28 0 -47.833 4.5 -59.5 13.5s-17.5 20.167 -17.5 33.5c0 16.667 6.5 29.667 19.5 39s33.5 14 61.5 14c25.333 0 48.833 -2.5 70.5 -7.5s44.834 -12.167 69.501 -21.5l22 96c-21.333 10 -46.833 17.833 -76.5 23.5s-62.5 8.5 -98.5 8.5
c-59.333 0 -106.833 -12.5 -142.5 -37.5s-53.5 -58.167 -53.5 -99.5c0 -26 6.83301 -47 20.5 -63s34.834 -29.667 63.501 -41c-18.667 -5.33301 -34.334 -12.666 -47.001 -21.999s-23 -19.666 -31 -30.999s-13.833 -23.5 -17.5 -36.5s-5.5 -25.5 -5.5 -37.5
c0 -27.333 5.5 -49.666 16.5 -66.999s25.667 -31.166 44 -41.499s39.333 -17.5 63 -21.5s48.167 -6 73.5 -6z" />
    </font>
</defs>
</svg>
