<?xml version="1.0" standalone="no"?>
<!DOCTYPE svg PUBLIC "-//W3C//DTD SVG 1.1//EN" "http://www.w3.org/Graphics/SVG/1.1/DTD/svg11.dtd" >
<svg>
<metadata>
Created by FontForge 20090914 at Fri Jun  7 10:32:43 2013
 By www-data
Copyright (c) 2008 by Process Type Foundry. All rights reserved.
</metadata>
<defs>
<font id="Knowledge-Bold" horiz-adv-x="564" >
  <font-face 
    font-family="Knowledge Bold"
    font-weight="700"
    font-stretch="normal"
    units-per-em="1000"
    panose-1="2 11 5 3 5 0 0 2 0 4"
    ascent="775"
    descent="-225"
    x-height="488"
    cap-height="666"
    bbox="-236 -250.002 1239 950"
    underline-thickness="70"
    underline-position="-30"
    unicode-range="U+0020-U+FB02"
  />
<missing-glyph horiz-adv-x="616" 
d="M75 0h466v666h-466v-666zM104 25v616h408v-616h-408zM229 239l79 81l81 -81l14 14l-80 80l80 80l-14 14l-81 -81l-79 81l-14 -14l80 -80l-80 -80z" />
    <glyph glyph-name="fi" unicode="fi" horiz-adv-x="574" 
d="M359 623c0 -22.667 7.66699 -42.334 23 -59.001s35.666 -25 60.999 -25s45.666 8.33301 60.999 25s23 36.334 23 59.001c0 23.333 -7.66699 43.166 -23 59.499s-35.666 24.5 -60.999 24.5s-45.666 -8.16699 -60.999 -24.5s-23 -36.166 -23 -59.499zM311 663
c-13.333 4 -26.999 7.16602 -40.999 9.49902s-29.333 3.5 -46 3.5c-54 0 -92.667 -12.667 -116 -38s-35 -63 -35 -113v-37h-53v-113h53v-375h142v375h82v113h-82v35c0 16.667 3.83301 28 11.5 34s18.5 9 32.5 9c10 0 18.667 -0.666992 26 -2
s13.666 -2.66602 18.999 -3.99902zM514.001 -0.000976562v488h-142v-488h142z" />
    <glyph glyph-name="fl" unicode="fl" horiz-adv-x="599" 
d="M317 661c-11.333 4 -25.166 7.49902 -41.499 10.499s-33.5 4.5 -51.5 4.5c-54 0 -92.667 -12.667 -116 -38s-35 -63 -35 -113v-37h-53v-113h53v-375h142v375h82v113h-82v35c0 16.667 3.83301 28 11.5 34s18.5 9 32.5 9c10 0 19.167 -0.666992 27.5 -2
s16.166 -2.66602 23.499 -3.99902zM584 2.99902l-3.00098 106c-10 -3.33301 -21 -5 -33 -5c-24 0 -36 10.667 -36 32v530h-142v-531c0 -46 9.66699 -81.667 29 -107s53 -38 101 -38c16 0 31.833 1.33301 47.5 4s27.834 5.66699 36.501 9z" />
    <glyph glyph-name=".notdef" horiz-adv-x="616" 
d="M75 0h466v666h-466v-666zM104 25v616h408v-616h-408zM229 239l79 81l81 -81l14 14l-80 80l80 80l-14 14l-81 -81l-79 81l-14 -14l80 -80l-80 -80z" />
    <glyph glyph-name="space" unicode=" " horiz-adv-x="220" 
 />
    <glyph glyph-name="exclam" unicode="!" horiz-adv-x="276" 
d="M98 208h80l35 211v247h-150v-247zM55 74c0 -24.667 7.66699 -44.5 23 -59.5s35.333 -22.5 60 -22.5s44.667 7.5 60 22.5s23 34.833 23 59.5s-7.66699 44.5 -23 59.5s-35.333 22.5 -60 22.5s-44.667 -7.5 -60 -22.5s-23 -34.833 -23 -59.5z" />
    <glyph glyph-name="quotedbl" unicode="&#x22;" horiz-adv-x="469" 
d="M287 394h114l13 150v122h-140v-122zM68 394h114l13 150v122h-140v-122z" />
    <glyph glyph-name="numbersign" unicode="#" horiz-adv-x="665" 
d="M89 0h108l38 173h141l-38 -173h108l38 173h89l21 95h-89l31 141h88l21 95h-89l36 162h-108l-36 -162h-141l36 162h-108l-36 -162h-97l-21 -95h98l-31 -141h-97l-21 -95h97zM256 268l31 141h141l-31 -141h-141z" />
    <glyph glyph-name="dollar" unicode="$" horiz-adv-x="541" 
d="M43 47c23.333 -10.667 48.499 -19.834 75.499 -27.501s54.5 -13.5 82.5 -17.5v-131h140v134c50.667 11.333 90.834 33.333 120.501 66s44.5 74.667 44.5 126c0 32.667 -5.33301 59.834 -16 81.501s-24.834 40 -42.501 55s-38.334 27.5 -62.001 37.5
s-48.5 19.667 -74.5 29l-59.5 20.5c-16.333 5.66699 -29.833 11.5 -40.5 17.5s-18.5 12.667 -23.5 20s-7.5 17 -7.5 29c0 24 7.83301 41.333 23.5 52s39.167 16 70.5 16c35.333 0 67.833 -4.33301 97.5 -13s58.167 -18.667 85.5 -30l28 110
c-17.333 9.33301 -37.833 17.833 -61.5 25.5s-50.5 13.167 -80.5 16.5v131h-140v-133c-49.333 -8.66699 -88.833 -28 -118.5 -58s-44.5 -73.667 -44.5 -131c0 -31.333 5 -57.666 15 -78.999s24.167 -39.5 42.5 -54.5s40.666 -27.667 66.999 -38s55.833 -20.5 88.5 -30.5
c20.667 -6.66699 38.334 -12.834 53.001 -18.501s26.334 -11.834 35.001 -18.501s15 -14.167 19 -22.5s6 -18.166 6 -29.499c0 -23.333 -8.66699 -40.833 -26 -52.5s-42 -17.5 -74 -17.5c-33.333 0 -66.666 4.5 -99.999 13.5s-64 19.833 -92 32.5z" />
    <glyph glyph-name="percent" unicode="%" horiz-adv-x="871" 
d="M201 310c28 0 52.667 4.5 74 13.5s39.166 21.667 53.499 38s25.166 35.666 32.499 57.999s11 46.833 11 73.5s-3.66699 51.167 -11 73.5s-18.166 41.666 -32.499 57.999s-32.166 29 -53.499 38s-46 13.5 -74 13.5s-52.667 -4.5 -74 -13.5s-39.166 -21.667 -53.499 -38
s-25.166 -35.666 -32.499 -57.999s-11 -46.833 -11 -73.5s3.66699 -51.167 11 -73.5s18.166 -41.666 32.499 -57.999s32.166 -29 53.499 -38s46 -13.5 74 -13.5zM216 0h121l324 666h-122zM201 397c-21.333 0 -37 7.5 -47 22.5s-15 39.5 -15 73.5s5 58.5 15 73.5
s25.667 22.5 47 22.5s37 -7.5 47 -22.5s15 -39.5 15 -73.5s-5 -58.5 -15 -73.5s-25.667 -22.5 -47 -22.5zM504 173c0 -26.667 3.66699 -51.167 11 -73.5s18.166 -41.666 32.499 -57.999s32.166 -29 53.499 -38s46 -13.5 74 -13.5s52.667 4.5 74 13.5
s39.166 21.667 53.499 38s25.166 35.666 32.499 57.999s11 46.833 11 73.5s-3.66699 51.167 -11 73.5s-18.166 41.666 -32.499 57.999s-32.166 29 -53.499 38s-46 13.5 -74 13.5s-52.667 -4.5 -74 -13.5s-39.166 -21.667 -53.499 -38s-25.166 -35.666 -32.499 -57.999
s-11 -46.833 -11 -73.5zM613 173c0 34 5 58.5 15 73.5s25.667 22.5 47 22.5s37 -7.5 47 -22.5s15 -39.5 15 -73.5s-5 -58.5 -15 -73.5s-25.667 -22.5 -47 -22.5s-37 7.5 -47 22.5s-15 39.5 -15 73.5z" />
    <glyph glyph-name="ampersand" unicode="&#x26;" horiz-adv-x="645" 
d="M30 162c0 -28.667 5.33398 -53.832 16.001 -75.499s25.167 -39.667 43.5 -54s39.833 -25 64.5 -32s51 -10.5 79 -10.5c37.333 0 71.5 5.16699 102.5 15.5s59.167 25.166 84.5 44.499l44 -50h161l-121 138c22.667 32 41.667 66.667 57 104s27.666 75.666 36.999 114.999
l-109 27c-5.33301 -26 -12.833 -53 -22.5 -81s-21.5 -54.667 -35.5 -80l-113 129c36 28 64.667 56.833 86 86.5s32 62.5 32 98.5c0 20 -4.16699 38.333 -12.5 55s-20.166 31.334 -35.499 44.001s-33.833 22.5 -55.5 29.5s-46.167 10.5 -73.5 10.5c-30 0 -57 -4 -81 -12
s-44.167 -19 -60.5 -33s-28.833 -30.667 -37.5 -50s-13 -40.333 -13 -63c0 -16.667 2.5 -32.667 7.5 -48s11.5 -29.833 19.5 -43.5s17 -26.667 27 -39l29 -34.5c-17.333 -12.667 -33.333 -25.5 -48 -38.5s-27.334 -27 -38.001 -42s-19 -31.5 -25 -49.5s-9 -38.333 -9 -61z
M258.001 92.002c-28 0 -49.334 7.33203 -64.001 21.999s-22 33.334 -22 56.001c0 20.667 4.33301 38.667 13 54s21.334 31 38.001 47l129 -145c-13.333 -10.667 -28 -19 -44 -25s-32.667 -9 -50 -9zM194 521.001c0 19.333 6.16797 33.8301 18.501 43.4971
s27.833 14.5 46.5 14.5c19.333 0 34.166 -4.83301 44.499 -14.5s15.5 -22.5 15.5 -38.5c0 -18 -6.66699 -34.667 -20 -50s-30 -30.666 -50 -45.999c-14 14.667 -26.667 29.834 -38 45.501s-17 30.834 -17 45.501z" />
    <glyph glyph-name="quotesingle" unicode="'" horiz-adv-x="250" 
d="M68 394h114l13 150v122h-140v-122z" />
    <glyph glyph-name="parenleft" unicode="(" horiz-adv-x="310" 
d="M193 -160l102 61.999c-17.333 35.333 -32.833 68.833 -46.5 100.5s-25 63.167 -34 94.5s-15.833 63 -20.5 95s-7 66 -7 102s2.33301 70 7 102s11.5 63.667 20.5 95s20.333 62.833 34 94.5s29.167 65.167 46.5 100.5l-102 62c-25.333 -39.333 -47.333 -77 -66 -113
s-34 -72.167 -46 -108.5s-21 -73.5 -27 -111.5s-9 -78.333 -9 -121s3 -83 9 -121s15 -75.167 27 -111.5s27.333 -72.666 46 -108.999s40.667 -73.833 66 -112.5z" />
    <glyph glyph-name="parenright" unicode=")" horiz-adv-x="310" 
d="M15 -98l102 -61.999c25.333 38.667 47.333 76.167 66 112.5s34 72.666 46 108.999s21 73.5 27 111.5s9 78.333 9 121s-3 83 -9 121s-15 75.167 -27 111.5s-27.333 72.5 -46 108.5s-40.667 73.667 -66 113l-102 -62c17.333 -35.333 32.833 -68.833 46.5 -100.5
s25 -63.167 34 -94.5s15.833 -63 20.5 -95s7 -66 7 -102s-2.33301 -70 -7 -102s-11.5 -63.667 -20.5 -95s-20.333 -62.833 -34 -94.5s-29.167 -65.167 -46.5 -100.5z" />
    <glyph glyph-name="asterisk" unicode="*" horiz-adv-x="420" 
d="M157 312h106l-34 143l108 -101l53 92l-141 43l141 43l-53 92l-108 -102l34 144h-106l34 -144l-108 102l-53 -92l141 -43l-141 -43l53 -92l108 101z" />
    <glyph glyph-name="plus" unicode="+" horiz-adv-x="544" 
d="M207 85h130v179h162v118h-162v179h-130v-179h-162v-118h162v-179z" />
    <glyph glyph-name="comma" unicode="," horiz-adv-x="311" 
d="M86 146l-61 -296h112l124 296h-175z" />
    <glyph glyph-name="hyphen" unicode="-" horiz-adv-x="365" 
d="M50 223h265v122h-265v-122z" />
    <glyph glyph-name="period" unicode="." horiz-adv-x="276" 
d="M55 74c0 -24.667 7.66699 -44.5 23 -59.5s35.333 -22.5 60 -22.5s44.667 7.5 60 22.5s23 34.833 23 59.5s-7.66699 44.5 -23 59.5s-35.333 22.5 -60 22.5s-44.667 -7.5 -60 -22.5s-23 -34.833 -23 -59.5z" />
    <glyph glyph-name="slash" unicode="/" horiz-adv-x="471" 
d="M35 -100h137l269 776h-137z" />
    <glyph glyph-name="zero" unicode="0" horiz-adv-x="610" 
d="M305 -10c46.667 0 87 7.83301 121 23.5s62 38.334 84 68.001s38.333 65.667 49 108s16 90.166 16 143.499s-5.33301 101.166 -16 143.499s-27 78.333 -49 108s-50 52.334 -84 68.001s-74.333 23.5 -121 23.5s-87 -7.83301 -121 -23.5s-62 -38.334 -84 -68.001
s-38.333 -65.667 -49 -108s-16 -90.166 -16 -143.499s5.33301 -101.166 16 -143.499s27 -78.333 49 -108s50 -52.334 84 -68.001s74.333 -23.5 121 -23.5zM305 103c-25.333 0 -46.166 5.16699 -62.499 15.5s-29.333 25.5 -39 45.5s-16.5 44.167 -20.5 72.5s-6 60.5 -6 96.5
s2 68.167 6 96.5s10.833 52.333 20.5 72s22.667 34.667 39 45s37.166 15.5 62.499 15.5s46.166 -5.16699 62.499 -15.5s29.333 -25.333 39 -45s16.5 -43.667 20.5 -72s6 -60.5 6 -96.5s-2 -68.167 -6 -96.5s-10.833 -52.5 -20.5 -72.5s-22.667 -35.167 -39 -45.5
s-37.166 -15.5 -62.499 -15.5z" />
    <glyph glyph-name="one" unicode="1" horiz-adv-x="375" 
d="M163 0h142v666h-119l-174 -35l17 -118l134 23v-536z" />
    <glyph glyph-name="two" unicode="2" horiz-adv-x="540" 
d="M30 0l467.001 -0.000976562v114h-320v2c0 14.667 4.33301 28 13 40s19.667 23.333 33 34s27.666 20.5 42.999 29.5s30 18.167 44 27.5l69.5 44.5c23.667 15 45.167 31.833 64.5 50.5s35.166 39.834 47.499 63.501s18.5 51.5 18.5 83.5c0 63.333 -21 110.333 -63 141
s-99.667 46 -173 46c-44 0 -83 -4.5 -117 -13.5s-67.333 -22.167 -100 -39.5l32 -108c20.667 11.333 45.334 22 74.001 32s60 15 94 15c74 0 111 -26 111 -78c0 -16 -3.66699 -30 -11 -42s-17.5 -23.5 -30.5 -34.5s-28.833 -22 -47.5 -33l-61 -37.5l-73.5 -47
c-23 -15.333 -43 -33 -60 -53s-30.333 -43.667 -40 -71s-14.5 -61 -14.5 -101v-65z" />
    <glyph glyph-name="three" unicode="3" horiz-adv-x="518" 
d="M25 40c30.667 -15.333 65 -27.5029 103 -36.5029s74 -13.5 108 -13.5c36.667 0 70.167 4.33301 100.5 13s56.333 21.334 78 38.001s38.5 37 50.5 61s18 51 18 81c0 40.667 -10.5 73.667 -31.5 99s-50.167 44 -87.5 56c36 15.333 63.333 37.833 82 67.5s28 63.5 28 101.5
c0 51.333 -18.667 92.333 -56 123s-92.333 46 -165 46c-38 0 -74.5 -4.66699 -109.5 -14s-68.833 -22.666 -101.5 -39.999l34 -103c23.333 12.667 47.5 23 72.5 31s51.833 12 80.5 12c30.667 0 55.5 -6.33301 74.5 -19s28.5 -32.667 28.5 -60
c0 -31.333 -10.667 -54.166 -32 -68.499s-54 -21.5 -98 -21.5h-100v-114h103c43.333 0 76.833 -7.33301 100.5 -22s35.5 -37 35.5 -67c0 -28 -9.66699 -49.333 -29 -64s-49 -22 -89 -22c-28 0 -55.833 3.66699 -83.5 11s-55.167 17 -82.5 29z" />
    <glyph glyph-name="four" unicode="4" horiz-adv-x="578" 
d="M25 152h318v-152h137v152h83v111h-83v403h-153l-302 -397v-117zM157 263l186 252v-252h-186z" />
    <glyph glyph-name="five" unicode="5" horiz-adv-x="565" 
d="M45 48c16 -8.66699 33.499 -16.6699 52.499 -24.0029s38.667 -13.5 59 -18.5s40.333 -8.83301 60 -11.5s37.834 -4 54.501 -4c40 0 76.167 5.66699 108.5 17s59.833 27 82.5 47s40.167 43.667 52.5 71s18.5 57 18.5 89c0 32.667 -4.83301 62.334 -14.5 89.001
s-23.5 49.334 -41.5 68.001s-40.167 33 -66.5 43s-56.166 15 -89.499 15c-21.333 0 -41.833 -2.16699 -61.5 -6.5s-36.5 -11.166 -50.5 -20.499v150h283v114h-425v-353l115 -36c11.333 8.66699 25.166 17 41.499 25s36.166 12 59.499 12
c34.667 0 61.334 -8.83301 80.001 -26.5s28 -43.167 28 -76.5c0 -34 -11.167 -60.5 -33.5 -79.5s-53.5 -28.5 -93.5 -28.5c-32.667 0 -64 4.66699 -94 14s-60 21 -90 35z" />
    <glyph glyph-name="six" unicode="6" horiz-adv-x="566" 
d="M35 301c0 -45.333 4.99902 -87.001 14.999 -125.001s25.333 -70.833 46 -98.5s47 -49.167 79 -64.5s70 -23 114 -23c38 0 72.5 6.16699 103.5 18.5s57.167 28.833 78.5 49.5s37.833 44.834 49.5 72.501s17.5 57.167 17.5 88.5c0 64 -17.833 114.333 -53.5 151
s-86.167 55 -151.5 55c-34.667 0 -64.334 -6 -89.001 -18s-46.667 -30 -66 -54c0.666992 32 4.16699 60.833 10.5 86.5s16 47.5 29 65.5s29.667 32 50 42s44.833 15 73.5 15c30 0 57.333 -4.16699 82 -12.5s46 -16.833 64 -25.5l30 108c-20 11.333 -46 21.5 -78 30.5
s-68.667 13.5 -110 13.5c-54 0 -99.667 -9.83301 -137 -29.5s-67.666 -46.5 -90.999 -80.5s-40.166 -73.833 -50.499 -119.5s-15.5 -94.167 -15.5 -145.5zM182.999 204.999c0 34 9.83203 60.5 29.499 79.5s46.834 28.5 81.501 28.5c34 0 60.333 -9 79 -27s28 -43.333 28 -76
s-9.66699 -59.5 -29 -80.5s-46 -31.5 -80 -31.5c-36 0 -63.167 9.83301 -81.5 29.5s-27.5 45.5 -27.5 77.5z" />
    <glyph glyph-name="seven" unicode="7" horiz-adv-x="489" 
d="M72 0h148l249 548v118h-444v-114h305z" />
    <glyph glyph-name="eight" unicode="8" horiz-adv-x="580" 
d="M40 187c0 -28 5.83691 -54 17.5039 -78s28.334 -44.833 50.001 -62.5s48 -31.5 79 -41.5s65.5 -15 103.5 -15s72.5 5 103.5 15s57.333 23.833 79 41.5s38.334 38.5 50.001 62.5s17.5 50 17.5 78c0 36.667 -8.83301 68.667 -26.5 96s-46.5 49.666 -86.5 66.999
c30.667 17.333 53.167 38.833 67.5 64.5s21.5 53.5 21.5 83.5c0 27.333 -5.33301 52 -16 74s-25.834 40.667 -45.501 56s-43.334 27.166 -71.001 35.499s-58.834 12.5 -93.501 12.5s-65.834 -4.16699 -93.501 -12.5s-51.334 -20.166 -71.001 -35.499
s-34.834 -34 -45.501 -56s-16 -46.667 -16 -74c0 -30 7.16699 -57.833 21.5 -83.5s36.833 -47.167 67.5 -64.5c-40 -17.333 -68.833 -39.666 -86.5 -66.999s-26.5 -59.333 -26.5 -96zM290.004 392c-29.333 0 -52.333 8.16699 -69 24.5s-25 38.166 -25 65.499
c0 24 7.66699 44.333 23 61s39 25 71 25s55.667 -8.33301 71 -25s23 -37 23 -61c0 -27.333 -8.33301 -49.166 -25 -65.499s-39.667 -24.5 -69 -24.5zM180.004 197c0 12 2.16699 23.5 6.5 34.5s11 20.667 20 29s20.333 15.166 34 20.499s30.167 8 49.5 8
s35.833 -2.66699 49.5 -8s25 -12.166 34 -20.499s15.667 -18 20 -29s6.5 -22.5 6.5 -34.5c0 -32 -10 -56.5 -30 -73.5s-46.667 -25.5 -80 -25.5s-60 8.5 -80 25.5s-30 41.5 -30 73.5z" />
    <glyph glyph-name="nine" unicode="9" horiz-adv-x="566" 
d="M49 34c20 -11.333 46.0029 -21.499 78.0029 -30.499s68.667 -13.5 110 -13.5c54 0 99.667 9.83301 137 29.5s67.666 46.5 90.999 80.5s40.166 73.833 50.499 119.5s15.5 94.167 15.5 145.5c0 45.333 -5 87 -15 125s-25.333 70.833 -46 98.5s-47 49.167 -79 64.5
s-70 23 -114 23c-41.333 0 -77.5 -6.16699 -108.5 -18.5s-57 -28.833 -78 -49.5s-36.667 -45 -47 -73s-15.5 -57.333 -15.5 -88c0 -64 17.833 -114.333 53.5 -151s86.167 -55 151.5 -55c34.667 0 64.334 6 89.001 18s46.667 30 66 54
c-0.666992 -30 -3.83398 -57.833 -9.50098 -83.5s-14.667 -47.834 -27 -66.501s-28.5 -33.167 -48.5 -43.5s-44.667 -15.5 -74 -15.5c-30.667 0 -58.334 4 -83.001 12s-47 16.667 -67 26zM272.003 353.001c-34 0 -60.332 9 -78.999 27s-28 43.333 -28 76
c0 34 9.66699 61.333 29 82s46 31 80 31c36 0 63.167 -10 81.5 -30s27.5 -46 27.5 -78c0 -34 -9.83301 -60.5 -29.5 -79.5s-46.834 -28.5 -81.501 -28.5z" />
    <glyph glyph-name="colon" unicode=":" horiz-adv-x="276" 
d="M138 277c24.667 0 44.667 7.5 60 22.5s23 34.833 23 59.5s-7.66699 44.5 -23 59.5s-35.333 22.5 -60 22.5s-44.667 -7.5 -60 -22.5s-23 -34.833 -23 -59.5s7.66699 -44.5 23 -59.5s35.333 -22.5 60 -22.5zM55 74c0 -24.667 7.66699 -44.5 23 -59.5s35.333 -22.5 60 -22.5
s44.667 7.5 60 22.5s23 34.833 23 59.5s-7.66699 44.5 -23 59.5s-35.333 22.5 -60 22.5s-44.667 -7.5 -60 -22.5s-23 -34.833 -23 -59.5z" />
    <glyph glyph-name="semicolon" unicode=";" horiz-adv-x="311" 
d="M169 270c25.333 0 46.166 8 62.499 24s24.5 36.667 24.5 62s-8.16699 46 -24.5 62s-37.166 24 -62.499 24s-46.166 -8 -62.499 -24s-24.5 -36.667 -24.5 -62s8.16699 -46 24.5 -62s37.166 -24 62.499 -24zM89 146l-64 -296h112l121 296h-169z" />
    <glyph glyph-name="less" unicode="&#x3c;" horiz-adv-x="549" 
d="M45 268l454 -183v126l-301 112l301 112v126l-454 -183v-110z" />
    <glyph glyph-name="equal" unicode="=" horiz-adv-x="544" 
d="M45 375h454v118h-454v-118zM45 153h454v118h-454v-118z" />
    <glyph glyph-name="greater" unicode="&#x3e;" horiz-adv-x="549" 
d="M50 85l454 183v110l-454 183v-126l301 -112l-301 -112v-126z" />
    <glyph glyph-name="question" unicode="?" horiz-adv-x="474" 
d="M126 203l126 0.00195312v24c0 12 1.66699 22.333 5 31s8.16602 16.667 14.499 24s13.833 14.5 22.5 21.5l28 23.5c18.667 14.667 35.5 28.834 50.5 42.501s27.833 27.667 38.5 42s18.834 29.666 24.501 45.999s8.5 35.166 8.5 56.499
c0 55.333 -19.333 96.166 -58 122.499s-90.667 39.5 -156 39.5c-36.667 0 -72.834 -4.5 -108.501 -13.5s-64.5 -19.5 -86.5 -31.5l24 -106c21.333 9.33301 45.833 17.833 73.5 25.5s54.167 11.5 79.5 11.5c24.667 0 45.834 -3.5 63.501 -10.5s26.5 -21.5 26.5 -43.5
c0 -10 -1.83301 -18.833 -5.5 -26.5s-9.16699 -15.167 -16.5 -22.5s-16.333 -15 -27 -23l-37 -28c-14 -10.667 -26.5 -21.334 -37.5 -32.001s-20.333 -22.167 -28 -34.5s-13.667 -26.166 -18 -41.499s-6.5 -33 -6.5 -53v-44zM107 74.002c0 -24.667 7.66699 -44.5 23 -59.5
s35.333 -22.5 60 -22.5s44.667 7.5 60 22.5s23 34.833 23 59.5s-7.66699 44.5 -23 59.5s-35.333 22.5 -60 22.5s-44.667 -7.5 -60 -22.5s-23 -34.833 -23 -59.5z" />
    <glyph glyph-name="at" unicode="@" horiz-adv-x="783" 
d="M30 260c0 -48 7.83594 -92.8301 23.5029 -134.497s38.667 -77.834 69 -108.501s67.833 -54.834 112.5 -72.501s95.667 -26.5 153 -26.5c54 0 105.333 6.16699 154 18.5s90.334 27.5 125.001 45.5l-26 71c-36.667 -18 -75 -32.333 -115 -43s-82 -16 -126 -16
c-45.333 0 -85.333 6.5 -120 19.5s-63.667 31.333 -87 55s-41 52.167 -53 85.5s-18 70.333 -18 111c0 43.333 7.33301 84.166 22 122.499s35.167 71.666 61.5 99.999s57.833 50.666 94.5 66.999s77 24.5 121 24.5c36 0 69 -4.83301 99 -14.5s55.833 -24 77.5 -43
s38.5 -42.167 50.5 -69.5s18 -58.666 18 -93.999c0 -19.333 -1.83301 -38.5 -5.5 -57.5s-9.33398 -36 -17.001 -51s-17.5 -27 -29.5 -36s-26 -13.5 -42 -13.5c-29.333 0 -44 16.667 -44 50c0 7.33301 1 16.666 3 27.999l27 153c-18.667 9.33301 -39.167 17 -61.5 23
s-47.166 9 -74.499 9c-32.667 0 -61.167 -5.66699 -85.5 -17s-44.5 -26.833 -60.5 -46.5s-27.833 -43 -35.5 -70s-11.5 -56.167 -11.5 -87.5c0 -15.333 2 -29.833 6 -43.5s10 -25.667 18 -36s17.833 -18.666 29.5 -24.999s25.5 -9.5 41.5 -9.5c14.667 0 28 2.5 40 7.5
s22.833 11.667 32.5 20s18 18 25 29s13.167 22.167 18.5 33.5c2.66699 -27.333 15.5 -49.166 38.5 -65.499s51.5 -24.5 85.5 -24.5c31.333 0 59.166 6.33301 83.499 19s44.666 29.667 60.999 51s28.666 46.166 36.999 74.499s12.5 58.5 12.5 90.5
c0 41.333 -7.5 79.833 -22.5 115.5s-36.833 66.5 -65.5 92.5s-63.667 46.5 -105 61.5s-88.333 22.5 -141 22.5c-62 0 -117.333 -10.333 -166 -31s-89.834 -48.667 -123.501 -84s-59.5 -77.166 -77.5 -125.499s-27 -99.833 -27 -154.5zM362.003 209.003
c-11.333 0 -19.168 4.33203 -23.501 12.999s-6.5 19 -6.5 31c0 18.667 1.83301 36 5.5 52s9 29.833 16 41.5s16 20.834 27 27.501s23.833 10 38.5 10c8.66699 0 17.334 -1.66699 26.001 -5l-7 -39c-3.33301 -18 -7.33301 -35 -12 -51s-10 -30 -16 -42s-13 -21.333 -21 -28
s-17 -10 -27 -10z" />
    <glyph glyph-name="A" unicode="A" horiz-adv-x="656" 
d="M5 0h148l48 147h254l48 -147h148l-242 666h-162zM328 535l87 -266h-174z" />
    <glyph glyph-name="B" unicode="B" horiz-adv-x="618" 
d="M65 0l309 0.000976562c32.667 0 62.167 4.5 88.5 13.5s48.833 21.5 67.5 37.5s33 35.167 43 57.5s15 47.166 15 74.499c0 45.333 -12.833 80.833 -38.5 106.5s-59.167 42.834 -100.5 51.501c40 14 69.5 35.167 88.5 63.5s28.5 61.166 28.5 98.499
c0 50.667 -16.833 90.5 -50.5 119.5s-81.5 43.5 -143.5 43.5h-307v-666zM209 391.001v160.999h121c31.333 0 54.5 -6.66699 69.5 -20s22.5 -31.666 22.5 -54.999c0 -22.667 -7 -42.667 -21 -60s-36.667 -26 -68 -26h-124zM209 114l0.000976562 162.999h138
c31.333 0 55.333 -7 72 -21s25 -33.333 25 -58c0 -25.333 -7.33301 -45.666 -22 -60.999s-37.334 -23 -68.001 -23h-145z" />
    <glyph glyph-name="C" unicode="C" horiz-adv-x="585" 
d="M30 333c0 -54 8 -102.502 24 -145.502s38.5 -79.167 67.5 -108.5s64 -51.833 105 -67.5s86.167 -23.5 135.5 -23.5c44 0 82.5 4 115.5 12s59.167 17 78.5 27l-22 115c-19.333 -8 -41.833 -14.667 -67.5 -20s-49.834 -8 -72.501 -8c-71.333 0 -125.5 17.833 -162.5 53.5
s-55.5 90.834 -55.5 165.501s18.5 129.834 55.5 165.501s91.167 53.5 162.5 53.5c22.667 0 46.834 -2.66699 72.501 -8s48.167 -12 67.5 -20l22 115c-19.333 10 -45.5 19 -78.5 27s-71.5 12 -115.5 12c-49.333 0 -94.5 -7.83301 -135.5 -23.5s-76 -38.167 -105 -67.5
s-51.5 -65.5 -67.5 -108.5s-24 -91.5 -24 -145.5z" />
    <glyph glyph-name="D" unicode="D" horiz-adv-x="685" 
d="M68 0h256c50.667 0 96.5 8 137.5 24s76 38.667 105 68s51.333 64.333 67 105s23.5 86 23.5 136s-7.83301 95.333 -23.5 136s-38 75.667 -67 105s-64 52 -105 68s-86.833 24 -137.5 24h-256v-666zM214 124v418h103c26.667 0 51.834 -4.16699 75.501 -12.5
s44.334 -21 62.001 -38s31.5 -38.667 41.5 -65s15 -57.5 15 -93.5s-5 -67.167 -15 -93.5s-23.833 -48 -41.5 -65s-38.334 -29.667 -62.001 -38s-48.834 -12.5 -75.501 -12.5h-103z" />
    <glyph glyph-name="E" unicode="E" horiz-adv-x="568" 
d="M65 0h458v126h-312v152h292v126h-292v136h312v126h-458v-666z" />
    <glyph glyph-name="F" unicode="F" horiz-adv-x="541" 
d="M65 0h146v256h288v126h-288v158h308v126h-454v-666z" />
    <glyph glyph-name="G" unicode="G" horiz-adv-x="664" 
d="M30 328c0 -47.333 6.99707 -91.502 20.9971 -132.502s35.667 -77 65 -108s66.5 -55.333 111.5 -73s98.167 -26.5 159.5 -26.5c20.667 0 41.667 1 63 3s42 4.5 62 7.5s38.333 6.5 55 10.5s30.667 8 42 12v293h-138v-200c-13.333 -2 -26.666 -3.66699 -39.999 -5
s-27.666 -2 -42.999 -2c-70 0 -122.833 18.333 -158.5 55s-53.5 91.667 -53.5 165c0 72 18.333 127.833 55 167.5s94 59.5 172 59.5c34 0 66.167 -3.33301 96.5 -10s59.5 -15 87.5 -25l21 117c-34 14.667 -68.333 25.334 -103 32.001s-73 10 -115 10
c-58.667 0 -110.5 -8.33301 -155.5 -25s-82.667 -40.167 -113 -70.5s-53.166 -67.166 -68.499 -110.499s-23 -91.333 -23 -144z" />
    <glyph glyph-name="H" unicode="H" horiz-adv-x="688" 
d="M65 0h146v271h266v-271h146v666h-146v-265h-266v265h-146v-666z" />
    <glyph glyph-name="I" unicode="I" horiz-adv-x="286" 
d="M70 0h146v666h-146v-666z" />
    <glyph glyph-name="J" unicode="J" horiz-adv-x="395" 
d="M17 11c18.667 -6.66699 39.667 -11.834 63 -15.501s45.666 -5.5 66.999 -5.5c60 0 105.5 16.5 136.5 49.5s46.5 78.5 46.5 136.5v490h-146v-491c0 -19.333 -5.16699 -34.666 -15.5 -45.999s-28.166 -17 -53.499 -17c-12 0 -25.333 1 -40 3s-28.667 4.66699 -42 8z" />
    <glyph glyph-name="K" unicode="K" horiz-adv-x="641" 
d="M65 0h146v311l233 -311h187l-270 341l266 325h-187l-229 -297v297h-146v-666z" />
    <glyph glyph-name="L" unicode="L" horiz-adv-x="529" 
d="M65 0h441v126h-295v540h-146v-666z" />
    <glyph glyph-name="M" unicode="M" horiz-adv-x="838" 
d="M65 0h141v380l142 -296h142l142 296v-380h141v666h-146l-208 -439l-208 439h-146v-666z" />
    <glyph glyph-name="N" unicode="N" horiz-adv-x="714" 
d="M65 0h142v424l297 -424h145v666h-142v-424l-297 424h-145v-666z" />
    <glyph glyph-name="O" unicode="O" horiz-adv-x="698" 
d="M30 333c0 -49.333 6.5 -95.166 19.5 -137.499s32.667 -78.833 59 -109.5s59.5 -54.667 99.5 -72s87 -26 141 -26s101 8.66699 141 26s73.167 41.333 99.5 72s46 67.167 59 109.5s19.5 88.166 19.5 137.499s-6.5 95.166 -19.5 137.499s-32.667 78.833 -59 109.5
s-59.5 54.667 -99.5 72s-87 26 -141 26s-101 -8.66699 -141 -26s-73.167 -41.333 -99.5 -72s-46 -67.167 -59 -109.5s-19.5 -88.166 -19.5 -137.499zM349 112c-30.667 0 -56.834 5.33301 -78.501 16s-39.5 25.834 -53.5 45.501s-24.333 43 -31 70s-10 56.833 -10 89.5
s3.33301 62.5 10 89.5s17 50.167 31 69.5s31.833 34.5 53.5 45.5s47.834 16.5 78.501 16.5s56.834 -5.5 78.501 -16.5s39.5 -26.167 53.5 -45.5s24.333 -42.5 31 -69.5s10 -56.833 10 -89.5s-3.33301 -62.5 -10 -89.5s-17 -50.333 -31 -70s-31.833 -34.834 -53.5 -45.501
s-47.834 -16 -78.501 -16z" />
    <glyph glyph-name="P" unicode="P" horiz-adv-x="609" 
d="M65 0l146 -0.00195312v230h155c33.333 0 63.833 5.66699 91.5 17s51.334 26.833 71.001 46.5s35 42.834 46 69.501s16.5 55.334 16.5 86.001c0 31.333 -5.33301 60.333 -16 87s-25.667 49.667 -45 69s-42.833 34.333 -70.5 45s-58.834 16 -93.501 16h-301v-666z
M211 346.998l-0.000976562 202.001h135c28.667 0 52.334 -8.5 71.001 -25.5s28 -41.833 28 -74.5s-9 -57.834 -27 -75.501s-42 -26.5 -72 -26.5h-135z" />
    <glyph glyph-name="Q" unicode="Q" horiz-adv-x="698" 
d="M531 -111l100.001 59.999l-68 111c36 31.333 62.5 70.333 79.5 117s25.5 98.667 25.5 156c0 49.333 -6.5 95.166 -19.5 137.499s-32.667 78.833 -59 109.5s-59.5 54.667 -99.5 72s-87 26 -141 26s-101 -8.66699 -141 -26s-73.167 -41.333 -99.5 -72
s-46 -67.167 -59 -109.5s-19.5 -88.166 -19.5 -137.499s6.5 -95.166 19.5 -137.499s32.667 -78.833 59 -109.5s59.5 -54.667 99.5 -72s87 -26 141 -26c20.667 0 40.167 1.33301 58.5 4s36.166 6.66699 53.499 12zM522.001 332.999c0 -30 -2.83301 -57.501 -8.5 -82.501
s-14.167 -47.167 -25.5 -66.5l-45 76l-93 -58l49 -84c-6.66699 -2 -14.334 -3.5 -23.001 -4.5s-17.667 -1.5 -27 -1.5c-30.667 0 -56.834 5.33301 -78.501 16s-39.5 25.834 -53.5 45.501s-24.333 43 -31 70s-10 56.833 -10 89.5s3.33301 62.5 10 89.5s17 50.167 31 69.5
s31.833 34.5 53.5 45.5s47.834 16.5 78.501 16.5s56.834 -5.5 78.501 -16.5s39.5 -26.167 53.5 -45.5s24.333 -42.5 31 -69.5s10 -56.833 10 -89.5z" />
    <glyph glyph-name="R" unicode="R" horiz-adv-x="669" 
d="M608 451c0 32.667 -5.16797 62.167 -15.501 88.5s-25.166 48.833 -44.499 67.5s-43 33.167 -71 43.5s-59.333 15.5 -94 15.5h-318v-666h146v236h106l149 -236h183l-175 253c41.333 16 74 41.5 98 76.5s36 75.5 36 121.5zM461.999 451c0 -32.667 -9.5 -57.5 -28.5 -74.5
s-43.5 -25.5 -73.5 -25.5h-149v198h149c30 0 54.5 -8.33301 73.5 -25s28.5 -41 28.5 -73z" />
    <glyph glyph-name="S" unicode="S" horiz-adv-x="571" 
d="M541 197c0 32.667 -4.8291 60.168 -14.4961 82.501s-23.834 41.166 -42.501 56.499s-41.667 28.166 -69 38.499s-59 19.833 -95 28.5c-26.667 6 -48.834 11.667 -66.501 17s-31.834 11 -42.501 17s-18.334 13 -23.001 21s-7 18.333 -7 31c0 28 9 46.667 27 56
s45.333 14 82 14c35.333 0 70.5 -4.16699 105.5 -12.5s66.833 -18.833 95.5 -31.5l26 116c-34 15.333 -69.167 27 -105.5 35s-77.5 12 -123.5 12c-37.333 0 -71.333 -3.33301 -102 -10s-57.334 -17.834 -80.001 -33.501s-40.167 -36.667 -52.5 -63
s-18.5 -59.166 -18.5 -98.499c0 -31.333 5 -58.333 15 -81s24.667 -42 44 -58s43 -29.167 71 -39.5s60.333 -19.166 97 -26.499c24.667 -5.33301 45.5 -10.333 62.5 -15s30.833 -10.334 41.5 -17.001s18.167 -14.5 22.5 -23.5s6.5 -19.833 6.5 -32.5
c0 -27.333 -10.667 -46.166 -32 -56.499s-50.333 -15.5 -87 -15.5c-32 0 -66.167 4.33301 -102.5 13s-71.5 19.667 -105.5 33l-31 -117c35.333 -14.667 74.333 -26.5 117 -35.5s83.667 -13.5 123 -13.5c84.667 0 149.834 18.167 195.501 54.5s68.5 87.833 68.5 154.5z" />
    <glyph glyph-name="T" unicode="T" horiz-adv-x="562" 
d="M540 540v126h-518v-126h186v-540h146v540h186z" />
    <glyph glyph-name="U" unicode="U" horiz-adv-x="688" 
d="M625 666h-146.002v-420c0 -44 -12.167 -77.333 -36.5 -100s-57.166 -34 -98.499 -34s-74.166 11.333 -98.499 34s-36.5 56 -36.5 100v420h-146v-412c0 -36 5.83301 -70.167 17.5 -102.5s29.167 -60.666 52.5 -84.999s52.5 -43.5 87.5 -57.5s76.167 -21 123.5 -21
s88.5 7 123.5 21s64.167 33.167 87.5 57.5s40.833 52.666 52.5 84.999s17.5 66.5 17.5 102.5v412z" />
    <glyph glyph-name="V" unicode="V" horiz-adv-x="604" 
d="M217 0h170l212 666h-154l-143 -501l-143 501h-154z" />
    <glyph glyph-name="W" unicode="W" horiz-adv-x="890" 
d="M527 666h-162l-121 -428l-93 428h-147l171 -666h137l134 505l132 -505h137l171 666h-147l-93 -428z" />
    <glyph glyph-name="X" unicode="X" horiz-adv-x="596" 
d="M583 666h-159l-126 -207l-126 207h-159l205 -327l-213 -339h159l134 220l134 -220h159l-214 339z" />
    <glyph glyph-name="Y" unicode="Y" 
d="M567 666h-154l-131 -278l-131 278h-154l212 -407v-259h146v259z" />
    <glyph glyph-name="Z" unicode="Z" horiz-adv-x="582" 
d="M542 0v126h-326l316 410v130h-478v-126h307l-316 -410v-130h497z" />
    <glyph glyph-name="bracketleft" unicode="[" horiz-adv-x="338" 
d="M313 -150v122h-101v644h101v122h-243v-888h243z" />
    <glyph glyph-name="backslash" unicode="\" horiz-adv-x="471" 
d="M299 -100h137l-269 776h-137z" />
    <glyph glyph-name="bracketright" unicode="]" horiz-adv-x="338" 
d="M268 -150v888h-243v-122h101v-644h-101v-122h243z" />
    <glyph glyph-name="asciicircum" unicode="^" horiz-adv-x="494" 
d="M314 666h-134l-155 -329h129l93 216l93 -216h129z" />
    <glyph glyph-name="underscore" unicode="_" horiz-adv-x="440" 
d="M441 -135v70h-442v-70h442z" />
    <glyph glyph-name="grave" unicode="`" horiz-adv-x="362" 
d="M158 548h139l-50 152h-182z" />
    <glyph glyph-name="a" unicode="a" horiz-adv-x="539" 
d="M486 0l-0.00195312 321.998c0 60.667 -18 105.167 -54 133.5s-89.333 42.5 -160 42.5c-36.667 0 -72 -4.16699 -106 -12.5s-64.667 -19.5 -92 -33.5l24 -110c22 10.667 45.333 19.334 70 26.001s53 10 85 10c60.667 0 91 -20.667 91 -62v-23h-129
c-25.333 0 -48.666 -2.66699 -69.999 -8s-39.666 -14.166 -54.999 -26.499s-27.5 -28.5 -36.5 -48.5s-13.5 -44.333 -13.5 -73c0 -46 13.333 -82 40 -108s64 -39 112 -39c34 0 65 6.33301 93 19s50 29.667 66 51v-60h135zM343.998 170.998
c0 -26.667 -9.16699 -47.167 -27.5 -61.5s-42.5 -21.5 -72.5 -21.5c-42.667 0 -64 18 -64 54c0 35.333 20.333 53 61 53h103v-24z" />
    <glyph glyph-name="b" unicode="b" 
d="M536 244c0 36 -3.6709 69.498 -11.0039 100.498s-18.833 57.833 -34.5 80.5s-35.5 40.5 -59.5 53.5s-52.667 19.5 -86 19.5c-37.333 0 -67.166 -7.66699 -89.499 -23s-40.166 -34.666 -53.499 -57.999v249h-142v-666h138v71c12.667 -23.333 31.167 -42.666 55.5 -57.999
s55.5 -23 93.5 -23c32.667 0 60.834 6.5 84.501 19.5s43.334 30.833 59.001 53.5s27.167 49.5 34.5 80.5s11 64.5 11 100.5zM394.996 243.998c0 -44 -7 -78.5 -21 -103.5s-38 -37.5 -72 -37.5c-35.333 0 -60.833 12.5 -76.5 37.5s-23.5 59.5 -23.5 103.5
s7.83301 78.5 23.5 103.5s41.167 37.5 76.5 37.5c34 0 58 -12.5 72 -37.5s21 -59.5 21 -103.5z" />
    <glyph glyph-name="c" unicode="c" horiz-adv-x="454" 
d="M428 464c-17.333 10.667 -40 18.998 -68 24.998s-57 9 -87 9c-41.333 0 -77.333 -6.16699 -108 -18.5s-56.167 -29.5 -76.5 -51.5s-35.5 -48.667 -45.5 -80s-15 -66 -15 -104s5 -72.667 15 -104s25.167 -58 45.5 -80s45.833 -39.167 76.5 -51.5s66.667 -18.5 108 -18.5
c30 0 59 3 87 9s50.667 14.333 68 25l-21 104c-15.333 -7.33301 -32.166 -13.333 -50.499 -18s-38.166 -7 -59.499 -7c-24 0 -44.167 3.33301 -60.5 10s-29.333 16.334 -39 29.001s-16.667 27.5 -21 44.5s-6.5 36.167 -6.5 57.5c0 20.667 2.16699 39.667 6.5 57
s11.333 32.333 21 45s22.667 22.334 39 29.001s36.5 10 60.5 10c21.333 0 41.166 -2.33301 59.499 -7s35.166 -10.667 50.499 -18z" />
    <glyph glyph-name="d" unicode="d" 
d="M28 244c0 -36 3.66016 -69.498 10.9932 -100.498s18.833 -57.833 34.5 -80.5s35.334 -40.5 59.001 -53.5s51.834 -19.5 84.501 -19.5c38 0 69.167 7.66699 93.5 23s42.833 34.666 55.5 57.999v-71h138v666h-142v-249c-13.333 23.333 -31.166 42.666 -53.499 57.999
s-52.166 23 -89.499 23c-33.333 0 -62.166 -6.5 -86.499 -19.5s-44.166 -30.833 -59.499 -53.5s-26.666 -49.5 -33.999 -80.5s-11 -64.5 -11 -100.5zM168.993 244.002c0 44 7 78.5 21 103.5s38 37.5 72 37.5c35.333 0 60.833 -12.5 76.5 -37.5s23.5 -59.5 23.5 -103.5
s-7.83301 -78.5 -23.5 -103.5s-41.167 -37.5 -76.5 -37.5c-34 0 -58 12.5 -72 37.5s-21 59.5 -21 103.5z" />
    <glyph glyph-name="e" unicode="e" horiz-adv-x="504" 
d="M476 192l-0.000976562 66c0 36 -4 68.667 -12 98s-20.5 54.5 -37.5 75.5s-38.667 37.333 -65 49s-57.833 17.5 -94.5 17.5c-42 0 -78 -6.66699 -108 -20s-54.833 -31.5 -74.5 -54.5s-34 -50 -43 -81s-13.5 -63.833 -13.5 -98.5c0 -78.667 20.5 -140.667 61.5 -186
s104.167 -68 189.5 -68c37.333 0 72 3.83301 104 11.5s62 18.167 90 31.5l-24 96c-22.667 -10 -46.167 -18.167 -70.5 -24.5s-50.166 -9.5 -77.499 -9.5c-40 0 -70 8 -90 24s-32.667 40.333 -38 73h303zM264.999 401c28 0 48.001 -8.66699 60.001 -26s18 -41 18 -71v-13
h-171c3.33301 34.667 12.166 61.667 26.499 81s36.5 29 66.5 29z" />
    <glyph glyph-name="f" unicode="f" horiz-adv-x="312" 
d="M317 661c-11.333 4 -25.166 7.49902 -41.499 10.499s-33.5 4.5 -51.5 4.5c-54 0 -92.667 -12.667 -116 -38s-35 -63 -35 -113v-37h-53v-113h53v-375h142v375h82v113h-82v35c0 16.667 3.83301 28 11.5 34s18.5 9 32.5 9c10 0 19.167 -0.666992 27.5 -2
s16.166 -2.66602 23.499 -3.99902z" />
    <glyph glyph-name="g" unicode="g" 
d="M504 488l-138.004 -0.000976562v-71c-30.667 54 -80.334 81 -149.001 81c-33.333 0 -61.833 -6.33301 -85.5 -19s-43.167 -30 -58.5 -52s-26.666 -47.667 -33.999 -77s-11 -61 -11 -95s3.5 -65.667 10.5 -95s18.167 -55 33.5 -77s34.833 -39.333 58.5 -52
s52.5 -19 86.5 -19c35.333 0 64.833 7.5 88.5 22.5s42.834 34.5 57.501 58.5v-75c0 -29.333 -7.66699 -53 -23 -71s-43.666 -27 -84.999 -27c-25.333 0 -51.666 2.66699 -78.999 8s-53.666 13 -78.999 23l-20 -106c26.667 -9.33301 56.5 -17.166 89.5 -23.499
s62.833 -9.5 89.5 -9.5c86 0 148.833 18 188.5 54s59.5 88.667 59.5 158v464zM362.996 254.999c0 -46 -9.33301 -79.167 -28 -99.5s-42 -30.5 -70 -30.5c-63.333 0 -95 43.333 -95 130c0 41.333 7.83301 73.5 23.5 96.5s39.5 34.5 71.5 34.5c30 0 53.833 -10.333 71.5 -31
s26.5 -54 26.5 -100z" />
    <glyph glyph-name="h" unicode="h" horiz-adv-x="558" 
d="M503 0v331.001c0 54 -11.833 95.333 -35.5 124s-63.834 43 -120.501 43c-38 0 -68.833 -8.16699 -92.5 -24.5s-41.167 -35.833 -52.5 -58.5v251h-142v-666h142v268c0 35.333 7.33301 62.166 22 80.499s38.334 27.5 71.001 27.5c22 0 38.5 -6 49.5 -18
s16.5 -28.667 16.5 -50v-308h142z" />
    <glyph glyph-name="i" unicode="i" horiz-adv-x="262" 
d="M47 623c0 -22.667 7.66699 -42.334 23 -59.001s35.666 -25 60.999 -25s45.666 8.33301 60.999 25s23 36.334 23 59.001c0 23.333 -7.66699 43.166 -23 59.499s-35.666 24.5 -60.999 24.5s-45.666 -8.16699 -60.999 -24.5s-23 -36.166 -23 -59.499zM202 0v488h-142v-488
h142z" />
    <glyph glyph-name="j" unicode="j" horiz-adv-x="262" 
d="M47 623c0 -22.667 7.66699 -42.334 23 -59.001s35.666 -25 60.999 -25s45.666 8.33301 60.999 25s23 36.334 23 59.001c0 23.333 -7.66699 43.166 -23 59.499s-35.666 24.5 -60.999 24.5s-45.666 -8.16699 -60.999 -24.5s-23 -36.166 -23 -59.499zM24 -68
c-13.333 0 -25.3311 1.33203 -35.998 3.99902l-10 -112c9.33301 -3.33301 21.666 -6.16602 36.999 -8.49902s30 -3.5 44 -3.5c48 0 83.833 11.833 107.5 35.5s35.5 57.5 35.5 101.5v539h-142v-519c0 -13.333 -2.83301 -22.833 -8.5 -28.5s-14.834 -8.5 -27.501 -8.5z" />
    <glyph glyph-name="k" unicode="k" horiz-adv-x="512" 
d="M351 0h164l-176 247l168 241h-162l-143 -214v392h-142v-666h142v220z" />
    <glyph glyph-name="l" unicode="l" horiz-adv-x="287" 
d="M272 3l-3.00098 106c-10 -3.33301 -21 -5 -33 -5c-24 0 -36 10.667 -36 32v530h-142v-531c0 -46 9.66699 -81.667 29 -107s53 -38 101 -38c16 0 31.833 1.33301 47.5 4s27.834 5.66699 36.501 9z" />
    <glyph glyph-name="m" unicode="m" horiz-adv-x="841" 
d="M494 0l-0.00292969 282.002c0 62.667 28 94 84 94c22 0 38.5 -6 49.5 -18s16.5 -28.667 16.5 -50v-308h142v331c0 54 -11.833 95.333 -35.5 124s-63.834 43 -120.501 43c-37.333 0 -67.666 -8.66699 -90.999 -26s-42 -38 -56 -62
c-9.33301 28.667 -25.666 50.5 -48.999 65.5s-55.333 22.5 -96 22.5c-37.333 0 -67.166 -8.83301 -89.499 -26.5s-39.166 -37.834 -50.499 -60.501v77h-138v-488h142v268c0 35.333 6.5 62.166 19.5 80.499s34.5 27.5 64.5 27.5c22 0 38.5 -6 49.5 -18s16.5 -28.667 16.5 -50
v-308h142z" />
    <glyph glyph-name="n" unicode="n" horiz-adv-x="558" 
d="M503 0v331c0 54 -11.833 95.333 -35.5 124s-63.834 43 -120.501 43c-20.667 0 -39 -2.5 -55 -7.5s-30 -11.667 -42 -20s-22.333 -17.666 -31 -27.999s-15.667 -20.833 -21 -31.5v77h-138v-488h142v268c0 35.333 7.33301 62.166 22 80.499s38.334 27.5 71.001 27.5
c22 0 38.5 -6 49.5 -18s16.5 -28.667 16.5 -50v-308h142z" />
    <glyph glyph-name="o" unicode="o" horiz-adv-x="532" 
d="M504 244c0 36.667 -5.16602 70.667 -15.499 102s-25.5 58.166 -45.5 80.499s-44.833 39.833 -74.5 52.5s-63.834 19 -102.501 19c-39.333 0 -73.833 -6.33301 -103.5 -19s-54.5 -30.167 -74.5 -52.5s-35 -49.166 -45 -80.499s-15 -65.333 -15 -102
c0 -37.333 5 -71.5 15 -102.5s25 -57.667 45 -80s44.833 -39.833 74.5 -52.5s64.167 -19 103.5 -19s73.833 6.33301 103.5 19s54.5 30.167 74.5 52.5s35 49 45 80s15 65.167 15 102.5zM362.001 244c0 -46 -7.5 -81 -22.5 -105s-39.5 -36 -73.5 -36s-58.5 12 -73.5 36
s-22.5 59 -22.5 105s7.5 81 22.5 105s39.5 36 73.5 36s58.5 -12 73.5 -36s22.5 -59 22.5 -105z" />
    <glyph glyph-name="p" unicode="p" 
d="M345 -10c33.333 0 62.0039 6.49805 86.0039 19.498s43.833 30.833 59.5 53.5s27.167 49.5 34.5 80.5s11 64.5 11 100.5s-3.66699 69.5 -11 100.5s-18.833 57.833 -34.5 80.5s-35.334 40.5 -59.001 53.5s-51.834 19.5 -84.501 19.5c-38 0 -69.167 -7.66699 -93.5 -23
s-42.833 -34.666 -55.5 -57.999v71h-138v-666h142v249c13.333 -23.333 31.166 -42.666 53.499 -57.999s52.166 -23 89.499 -23zM302.004 102.998c-35.333 0 -60.833 12.5 -76.5 37.5s-23.5 59.5 -23.5 103.5s7.83301 78.5 23.5 103.5s41.167 37.5 76.5 37.5
c34 0 58 -12.5 72 -37.5s21 -59.5 21 -103.5s-7 -78.5 -21 -103.5s-38 -37.5 -72 -37.5z" />
    <glyph glyph-name="q" unicode="q" 
d="M28 244c0 -36 3.67383 -69.498 11.0068 -100.498s18.666 -57.833 33.999 -80.5s35.166 -40.5 59.499 -53.5s53.166 -19.5 86.499 -19.5c37.333 0 67.166 7.66699 89.499 23s40.166 34.666 53.499 57.999v-249h142v666h-138v-71
c-12.667 23.333 -31.167 42.666 -55.5 57.999s-55.5 23 -93.5 23c-32.667 0 -60.834 -6.5 -84.501 -19.5s-43.334 -30.833 -59.001 -53.5s-27.167 -49.5 -34.5 -80.5s-11 -64.5 -11 -100.5zM169.007 244.002c0 44 7 78.5 21 103.5s38 37.5 72 37.5
c35.333 0 60.833 -12.5 76.5 -37.5s23.5 -59.5 23.5 -103.5s-7.83301 -78.5 -23.5 -103.5s-41.167 -37.5 -76.5 -37.5c-34 0 -58 12.5 -72 37.5s-21 59.5 -21 103.5z" />
    <glyph glyph-name="r" unicode="r" horiz-adv-x="358" 
d="M353 358l0.000976562 130c-4.66699 1.33301 -11 2.5 -19 3.5s-15.667 1.5 -23 1.5c-32 0 -56.333 -7.83301 -73 -23.5s-29.667 -37.5 -39 -65.5v84h-139v-488h143v219c0 50 8.16699 86.167 24.5 108.5s44.166 33.5 83.499 33.5c14.667 0 28.667 -1 42 -3z" />
    <glyph glyph-name="s" unicode="s" horiz-adv-x="445" 
d="M420 159c0 22.667 -3.49902 41.833 -10.499 57.5s-17.167 29.167 -30.5 40.5s-29.666 20.833 -48.999 28.5s-41.333 15.167 -66 22.5l-45 13c-12 3.33301 -21.667 6.83301 -29 10.5s-12.5 7.66699 -15.5 12s-4.5 10.166 -4.5 17.499c0 13.333 4.83301 22 14.5 26
s25.167 6 46.5 6c26 0 51.167 -3 75.5 -9s46.166 -13.333 65.499 -22l26 101c-23.333 11.333 -48.833 20 -76.5 26s-59.834 9 -96.501 9c-62 0 -110 -12.5 -144 -37.5s-51 -65.167 -51 -120.5c0 -21.333 3 -40.166 9 -56.499s16.167 -30.833 30.5 -43.5s33.5 -24 57.5 -34
s54 -19.333 90 -28c24 -6 40.5 -12 49.5 -18s13.5 -14.667 13.5 -26c0 -14 -5 -24 -15 -30s-25.667 -9 -47 -9c-25.333 0 -50.833 3.16699 -76.5 9.5s-51.5 14.833 -77.5 25.5l-30 -102c28 -11.333 58.5 -20.5 91.5 -27.5s64.5 -10.5 94.5 -10.5
c63.333 0 112.5 13.833 147.5 41.5s52.5 70.167 52.5 127.5z" />
    <glyph glyph-name="t" unicode="t" horiz-adv-x="347" 
d="M318 3l-3.00195 105c-15.333 -3.33301 -29.666 -5 -42.999 -5c-17.333 0 -29.166 3.33301 -35.499 10s-9.5 17 -9.5 31v224h95v120h-95v124h-142v-124h-65v-120h65v-238c0 -48 11.167 -83.333 33.5 -106s58.166 -34 107.499 -34c17.333 0 33.833 1.33301 49.5 4
s29.834 5.66699 42.501 9z" />
    <glyph glyph-name="u" unicode="u" horiz-adv-x="553" 
d="M55 488v-330.999c0 -52.667 12 -93.667 36 -123s63.333 -44 118 -44c20 0 37.667 2.5 53 7.5s29 11.667 41 20s22.333 17.666 31 27.999s15.667 20.833 21 31.5v-77h138v488h-142v-268c0 -34 -6.83301 -60.5 -20.5 -79.5s-36.167 -28.5 -67.5 -28.5
c-22 0 -38.5 6 -49.5 18s-16.5 28.667 -16.5 50v308h-142z" />
    <glyph glyph-name="v" unicode="v" horiz-adv-x="466" 
d="M233 141l-90 347h-149l157 -488h164l157 488h-149z" />
    <glyph glyph-name="w" unicode="w" horiz-adv-x="742" 
d="M445 488h-148l-86 -324l-73 324h-140l138 -488h145l90 327l90 -327h145l138 488h-140l-73 -324z" />
    <glyph glyph-name="x" unicode="x" horiz-adv-x="477" 
d="M464 488h-146l-80 -136l-79 136h-146l152 -242l-155 -246h146l82 141l83 -141h146l-156 246z" />
    <glyph glyph-name="y" unicode="y" horiz-adv-x="458" 
d="M232 151l-89 337h-149l167 -492l-53 -174h144l212 666h-149z" />
    <glyph glyph-name="z" unicode="z" horiz-adv-x="463" 
d="M428 0v112h-218l215 264v112h-374v-112h198l-209 -264v-112h388z" />
    <glyph glyph-name="braceleft" unicode="{" horiz-adv-x="372" 
d="M262 148c0 44 -10.167 77.998 -30.5 101.998s-52.833 38.667 -97.5 44c44.667 5.33301 77.167 20 97.5 44s30.5 58 30.5 102v132c0 29.333 13.333 44 40 44h45v122h-87c-46 0 -80.833 -12.167 -104.5 -36.5s-35.5 -60.166 -35.5 -107.499v-161
c0 -25.333 -6.16699 -44.833 -18.5 -58.5s-33.5 -20.5 -63.5 -20.5h-18v-120h18c30 0 51.167 -6.83301 63.5 -20.5s18.5 -33.167 18.5 -58.5v-161c0 -47.333 11.833 -83.166 35.5 -107.499s58.5 -36.5 104.5 -36.5h87v122h-45c-26.667 0 -40 14.667 -40 44v132z" />
    <glyph glyph-name="bar" unicode="|" horiz-adv-x="271" 
d="M196 -250v1000h-121v-1000h121z" />
    <glyph glyph-name="braceright" unicode="}" horiz-adv-x="372" 
d="M110 16c0 -29.333 -13.333 -43.998 -40 -43.998h-45v-122h87c46 0 80.833 12.167 104.5 36.5s35.5 60.166 35.5 107.499v161c0 25.333 6.16699 44.833 18.5 58.5s33.5 20.5 63.5 20.5h18v120h-18c-30 0 -51.167 6.83301 -63.5 20.5s-18.5 33.167 -18.5 58.5v161
c0 47.333 -11.833 83.166 -35.5 107.499s-58.5 36.5 -104.5 36.5h-87v-122h45c26.667 0 40 -14.667 40 -44v-132c0 -44 10.167 -78 30.5 -102s52.833 -38.667 97.5 -44c-44.667 -5.33301 -77.167 -20 -97.5 -44s-30.5 -58 -30.5 -102v-132z" />
    <glyph glyph-name="asciitilde" unicode="~" horiz-adv-x="575" 
d="M545 386l-120.997 36c-2 -6.66699 -4.5 -13.5 -7.5 -20.5s-6.5 -13.167 -10.5 -18.5s-8.66699 -9.83301 -14 -13.5s-12 -5.5 -20 -5.5c-12 0 -25.167 3 -39.5 9l-45 19.5c-15.667 7 -31.834 13.5 -48.501 19.5s-34 9 -52 9c-23.333 0 -42.833 -3.5 -58.5 -10.5
s-29.167 -17.167 -40.5 -30.5s-21 -29.333 -29 -48s-16 -39.667 -24 -63l121 -42l19.5 37.5c6.33301 11.667 17.166 17.5 32.499 17.5c12.667 0 26.5 -3 41.5 -9l47.5 -19.5c16.667 -7 33.834 -13.5 51.501 -19.5s35.167 -9 52.5 -9c21.333 0 40 5 56 15
s29.667 22.833 41 38.5s20.666 33 27.999 52s13.666 37.5 18.999 55.5z" />
    <glyph glyph-name="uni00A0" unicode="&#xa0;" horiz-adv-x="220" 
 />
    <glyph glyph-name="exclamdown" unicode="&#xa1;" horiz-adv-x="276" 
d="M55 416c0 -24.667 7.66699 -44.5 23 -59.5s35.333 -22.5 60 -22.5s44.667 7.5 60 22.5s23 34.833 23 59.5s-7.66699 44.5 -23 59.5s-35.333 22.5 -60 22.5s-44.667 -7.5 -60 -22.5s-23 -34.833 -23 -59.5zM178 280h-80l-35 -211v-247h150v247z" />
    <glyph glyph-name="cent" unicode="&#xa2;" horiz-adv-x="462" 
d="M199 -20l140 0.00585938v125c18 3.33301 34.833 7.66602 50.5 12.999s29.167 11 40.5 17l-24 102c-14 -6.66699 -30.5 -12.667 -49.5 -18s-39.5 -8 -61.5 -8c-45.333 0 -77.833 10.667 -97.5 32s-29.5 51.666 -29.5 90.999s9.83301 69.666 29.5 90.999s52.167 32 97.5 32
c22 0 42.5 -2.66699 61.5 -8s35.5 -11.333 49.5 -18l24 102c-11.333 6 -24.833 11.5 -40.5 16.5s-32.5 9.16699 -50.5 12.5v124h-140v-126c-56 -12.667 -98.167 -38.834 -126.5 -78.501s-42.5 -88.834 -42.5 -147.501c0 -59.333 14.167 -108.833 42.5 -148.5
s70.5 -65.834 126.5 -78.501v-127z" />
    <glyph glyph-name="sterling" unicode="&#xa3;" horiz-adv-x="541" 
d="M46 255h76.001c-6 -30 -16.5 -57 -31.5 -81s-35.167 -47.667 -60.5 -71v-103h468v113h-309c19.333 19.333 35.166 41 47.499 65s21.5 49.667 27.5 77h171v113h-164v90c0 37.333 7.5 64.166 22.5 80.499s40.5 24.5 76.5 24.5c26.667 0 51.5 -3.16699 74.5 -9.5
s42.167 -13.166 57.5 -20.499l24 107c-21.333 10 -46.333 18.5 -75 25.5s-60.667 10.5 -96 10.5c-33.333 0 -63.833 -3.5 -91.5 -10.5s-51.5 -19 -71.5 -36s-35.5 -39.333 -46.5 -67s-16.5 -62.5 -16.5 -104.5v-90h-83v-113z" />
    <glyph glyph-name="currency" unicode="&#xa4;" horiz-adv-x="598" 
d="M388 514c-10.667 5.33301 -24 9.66602 -40 12.999s-32.333 5 -49 5s-33 -1.66699 -49 -5s-29.333 -7.66602 -40 -12.999l-89 90l-86 -82l80 -81c-24.667 -34.667 -37 -74 -37 -118c0 -44.667 12.333 -84 37 -118l-80 -81l86 -82l89 89c26 -11.333 55.667 -17 89 -17
s63 5.66699 89 17l89 -89l86 82l-80 81c24.667 34 37 73.333 37 118c0 44 -12.333 83.333 -37 118l80 81l-86 82zM197 323c0 34 8.66699 61.5 26 82.5s42.666 31.5 75.999 31.5s58.666 -10.5 75.999 -31.5s26 -48.5 26 -82.5s-8.66699 -61.5 -26 -82.5
s-42.666 -31.5 -75.999 -31.5s-58.666 10.5 -75.999 31.5s-26 48.5 -26 82.5z" />
    <glyph glyph-name="yen" unicode="&#xa5;" horiz-adv-x="558" 
d="M65 142h143v-142h142v142h143v102h-143v10l27 62h116v105h-69l109 245h-148l-106 -288l-106 288h-148l109 -245h-69v-105h115l28 -62v-10h-143v-102z" />
    <glyph glyph-name="brokenbar" unicode="&#xa6;" horiz-adv-x="271" 
d="M196 750h-121v-399h121v399zM196 -250v399h-121v-399h121z" />
    <glyph glyph-name="section" unicode="&#xa7;" horiz-adv-x="550" 
d="M515 252c0 26.667 -5.66113 49.334 -16.9941 68.001s-26.333 35 -45 49s-39.667 26.167 -63 36.5s-47 20.166 -71 29.499l-59 22.5c-16 6.33301 -29 12.5 -39 18.5s-17.333 12.333 -22 19s-7 15.334 -7 26.001c0 20 7.33301 33.667 22 41s40 11 76 11
c30 0 60 -3.5 90 -10.5s56.333 -15.167 79 -24.5l24 99c-60 26 -126.667 39 -200 39c-40.667 0 -75.334 -3.83301 -104.001 -11.5s-52.167 -18.5 -70.5 -32.5s-31.833 -30.667 -40.5 -50s-13 -40.666 -13 -63.999c0 -28 5.66699 -51.5 17 -70.5s26.666 -35.5 45.999 -49.5
c-10 -6.66699 -20 -14.334 -30 -23.001s-18.833 -18.667 -26.5 -30s-14 -24.333 -19 -39s-7.5 -31.334 -7.5 -50.001c0 -26.667 4.33301 -49.834 13 -69.501s21.667 -37.167 39 -52.5s38.5 -29.166 63.5 -41.499s54.167 -24.5 87.5 -36.5
c18.667 -7.33301 35.667 -13.666 51 -18.999s28.333 -11 39 -17s19 -12.667 25 -20s9 -16 9 -26c0 -21.333 -9.33301 -36.5 -28 -45.5s-44.334 -13.5 -77.001 -13.5c-30.667 0 -62.667 4.66699 -96 14s-64 20.666 -92 33.999l-30 -101c36 -16 72.5 -28.333 109.5 -37
s77.167 -13 120.5 -13c33.333 0 64.166 4 92.499 12s52.666 19.333 72.999 34s36.166 32.5 47.499 53.5s17 44.5 17 70.5c0 28.667 -5.5 52.5 -16.5 71.5s-27.167 35.5 -48.5 49.5c22 17.333 41 39 57 65s24 54 24 84zM236.006 338
c24.667 -8.66699 45.8301 -16.8301 63.4971 -24.4971s32.334 -15.5 44.001 -23.5s20.334 -16.833 26.001 -26.5s8.5 -20.834 8.5 -33.501c0 -18 -3.66699 -33.833 -11 -47.5s-15.666 -24.834 -24.999 -33.501l-47 19c-20.667 8 -38.667 15.333 -54 22
s-28.166 13.667 -38.499 21s-18 15.333 -23 24s-7.5 19.334 -7.5 32.001c0 19.333 4.16699 35.166 12.5 47.499s17.166 23.166 26.499 32.499z" />
    <glyph glyph-name="dieresis" unicode="&#xa8;" horiz-adv-x="468" 
d="M261 623c0 -19.333 6.16699 -35.666 18.5 -48.999s29.833 -20 52.5 -20s40.167 6.66699 52.5 20s18.5 29.666 18.5 48.999s-6.16699 35.666 -18.5 48.999s-29.833 20 -52.5 20s-40.167 -6.66699 -52.5 -20s-18.5 -29.666 -18.5 -48.999zM65 623
c0 -19.333 6.16699 -35.666 18.5 -48.999s29.833 -20 52.5 -20s40.167 6.66699 52.5 20s18.5 29.666 18.5 48.999s-6.16699 35.666 -18.5 48.999s-29.833 20 -52.5 20s-40.167 -6.66699 -52.5 -20s-18.5 -29.666 -18.5 -48.999z" />
    <glyph glyph-name="copyright" unicode="&#xa9;" horiz-adv-x="749" 
d="M25 333c0 -47.333 8.5 -92 25.5 -134s40.833 -78.667 71.5 -110s67.5 -56 110.5 -74s90.167 -27 141.5 -27c52 0 99.333 9 142 27s79.5 42.667 110.5 74s55 68 72 110s25.5 86.667 25.5 134s-8.5 92 -25.5 134s-41 78.667 -72 110s-67.833 56 -110.5 74s-90 27 -142 27
c-51.333 0 -98.5 -9 -141.5 -27s-79.833 -42.667 -110.5 -74s-54.5 -68 -71.5 -110s-25.5 -86.667 -25.5 -134zM675 333c0 -40 -7 -78.167 -21 -114.5s-34.167 -68.333 -60.5 -96s-58 -49.667 -95 -66s-78.5 -24.5 -124.5 -24.5s-87.5 8.16699 -124.5 24.5
s-68.5 38.333 -94.5 66s-46 59.667 -60 96s-21 74.5 -21 114.5s7 78.167 21 114.5s34 68.333 60 96s57.5 49.667 94.5 66s78.5 24.5 124.5 24.5s87.5 -8.16699 124.5 -24.5s68.667 -38.333 95 -66s46.5 -59.667 60.5 -96s21 -74.5 21 -114.5zM400 529
c-66 0 -116.167 -18 -150.5 -54s-51.5 -83.333 -51.5 -142s17.167 -106 51.5 -142s84.5 -54 150.5 -54c20.667 0 40.667 2 60 6s36 9.66699 50 17l-15 74c-12.667 -5.33301 -26 -9.33301 -40 -12s-29 -4 -45 -4c-40 0 -69.167 10.167 -87.5 30.5s-27.5 48.5 -27.5 84.5
s9.16699 64.167 27.5 84.5s47.5 30.5 87.5 30.5c16 0 31 -1.33301 45 -4s27.333 -6.66699 40 -12l15 74c-14 7.33301 -30.667 13 -50 17s-39.333 6 -60 6z" />
    <glyph glyph-name="ordfeminine" unicode="&#xaa;" horiz-adv-x="379" 
d="M334 347l0.00195312 211.002c0 42.667 -12.167 73 -36.5 91s-59.833 27 -106.5 27c-24.667 0 -48.167 -2.33301 -70.5 -7s-43.5 -12.334 -63.5 -23.001l17 -77c16 7.33301 32.667 13.166 50 17.499s35.666 6.5 54.999 6.5s33.333 -2.66699 42 -8s13 -15.666 13 -30.999
v-13h-83c-37.333 0 -66 -8.16699 -86 -24.5s-30 -41.5 -30 -75.5c0 -32 8.66699 -56.667 26 -74s42.666 -26 75.999 -26c25.333 0 46.833 5.16699 64.5 15.5s30.167 22.166 37.5 35.499v-45h95zM234.002 462.002c0 -16 -5.33301 -29.167 -16 -39.5
s-25.334 -15.5 -44.001 -15.5c-15.333 0 -26.166 3.33301 -32.499 10s-9.5 14.667 -9.5 24c0 21.333 12.333 32 37 32h65v-11zM38.002 211.002h306v83h-306v-83z" />
    <glyph glyph-name="guillemotleft" unicode="&#xab;" horiz-adv-x="642" 
d="M607 455h-164l-153 -207l153 -207h164l-152 207zM337 455h-164l-153 -207l153 -207h164l-152 207z" />
    <glyph glyph-name="logicalnot" unicode="&#xac;" horiz-adv-x="544" 
d="M499 85v297h-454v-118h324v-179h130z" />
    <glyph glyph-name="registered" unicode="&#xae;" horiz-adv-x="516" 
d="M30 456c0 -29.333 5.33301 -57.5 16 -84.5s26 -50.667 46 -71s44 -36.5 72 -48.5s59.333 -18 94 -18s66.167 6 94.5 18s52.333 28.167 72 48.5s34.834 44 45.501 71s16 55.167 16 84.5c0 30 -5.33301 58.333 -16 85s-25.834 50.167 -45.501 70.5s-43.667 36.5 -72 48.5
s-59.833 18 -94.5 18s-66 -6 -94 -18s-52 -28.167 -72 -48.5s-35.333 -43.833 -46 -70.5s-16 -55 -16 -85zM71 456c0 26 4.5 50.5 13.5 73.5s21.667 42.833 38 59.5s36 29.834 59 39.501s48.5 14.5 76.5 14.5s53.5 -4.83301 76.5 -14.5s42.667 -22.834 59 -39.501
s29 -36.5 38 -59.5s13.5 -47.5 13.5 -73.5s-4.5 -50.5 -13.5 -73.5s-21.667 -42.833 -38 -59.5s-36 -29.834 -59 -39.501s-48.5 -14.5 -76.5 -14.5s-53.5 4.83301 -76.5 14.5s-42.667 22.834 -59 39.501s-29 36.5 -38 59.5s-13.5 47.5 -13.5 73.5zM350 503
c0 20.667 -7.16699 36.833 -21.5 48.5s-34.166 17.5 -59.499 17.5h-89v-213h57v76h11l53 -76h68l-61 83c13.333 5.33301 23.666 13.5 30.999 24.5s11 24.167 11 39.5zM293 499.999c0 -8.66699 -2.66699 -15.5 -8 -20.5s-12.666 -7.5 -21.999 -7.5h-26v54h26
c9.33301 0 16.666 -2.16699 21.999 -6.5s8 -10.833 8 -19.5z" />
    <glyph glyph-name="macron" unicode="&#xaf;" horiz-adv-x="442" 
d="M377 562v108h-312v-108h312z" />
    <glyph glyph-name="degree" unicode="&#xb0;" horiz-adv-x="344" 
d="M35 544c0 -38 12.167 -69.333 36.5 -94s57.833 -37 100.5 -37s76.167 12.333 100.5 37s36.5 56 36.5 94c0 18.667 -3.16699 36 -9.5 52s-15.333 30 -27 42s-26 21.333 -43 28s-36.167 10 -57.5 10s-40.5 -3.33301 -57.5 -10s-31.333 -16 -43 -28s-20.667 -26 -27 -42
s-9.5 -33.333 -9.5 -52zM115 544c0 20.667 5.16699 36.834 15.5 48.501s24.166 17.5 41.499 17.5s31.166 -5.83301 41.499 -17.5s15.5 -27.834 15.5 -48.501s-5.16699 -36.667 -15.5 -48s-24.166 -17 -41.499 -17s-31.166 5.66699 -41.499 17s-15.5 27.333 -15.5 48z" />
    <glyph glyph-name="plusminus" unicode="&#xb1;" horiz-adv-x="544" 
d="M499 0v112h-162v152h162v118h-162v179h-130v-179h-162v-118h162v-152h-162v-112h454z" />
    <glyph glyph-name="twosuperior" unicode="&#xb2;" horiz-adv-x="360" 
d="M316 390l0.00195312 83.9971h-169v1c0 4 2.5 8.33301 7.5 13s11.167 9.33398 18.5 14.001s15.166 9.33398 23.499 14.001l23.5 13c13.333 7.33301 26.333 15 39 23s23.834 17.333 33.501 28s17.5 22.834 23.5 36.501s9 30.167 9 49.5c0 35.333 -11.833 62.333 -35.5 81
s-57.834 28 -102.501 28c-25.333 0 -49.833 -3 -73.5 -9s-45.167 -14.333 -64.5 -25l24 -80c11.333 6.66699 25.166 13.167 41.499 19.5s34.833 9.5 55.5 9.5c32.667 0 49 -10.667 49 -32c0 -15.333 -7.5 -27.666 -22.5 -36.999s-35.167 -21 -60.5 -35
c-14.667 -8 -28.167 -16.333 -40.5 -25s-23 -18.834 -32 -30.501s-16 -25.167 -21 -40.5s-7.5 -34 -7.5 -56v-44h281z" />
    <glyph glyph-name="threesuperior" unicode="&#xb3;" horiz-adv-x="347" 
d="M312 498c0 43.333 -21.668 71 -65.001 83c40.667 18.667 61 50.334 61 95.001c0 29.333 -11 53.166 -33 71.499s-55.333 27.5 -100 27.5c-26 0 -49.5 -2.83301 -70.5 -8.5s-41.5 -14.167 -61.5 -25.5l25 -74c12.667 6.66699 26 12.167 40 16.5s30 6.5 48 6.5
c12 0 22.5 -2.16699 31.5 -6.5s13.5 -12.833 13.5 -25.5c0 -24 -20.667 -36 -62 -36h-53v-85h54c21.333 0 37.5 -2.33301 48.5 -7s16.5 -13.667 16.5 -27c0 -12.667 -4.66699 -21.5 -14 -26.5s-22.333 -7.5 -39 -7.5s-32.834 1.83301 -48.501 5.5
s-30.5 8.83398 -44.5 15.501l-24 -75c18.667 -8.66699 39.334 -15.834 62.001 -21.501s45.334 -8.5 68.001 -8.5c46 0 82 10.667 108 32s39 48.333 39 81z" />
    <glyph glyph-name="acute" unicode="&#xb4;" horiz-adv-x="362" 
d="M65 548h139l93 152h-182z" />
    <glyph glyph-name="mu" unicode="&#xb5;" horiz-adv-x="571" 
d="M60 488l0.00292969 -666.001h142v51c0 30 -5.83301 55.667 -17.5 77s-26.5 39.666 -44.5 54.999c9.33301 -4.66699 19.666 -8.33398 30.999 -11.001s23 -4 35 -4c22 0 41.667 2.66699 59 8s32.666 12.333 45.999 21s24.833 18.334 34.5 29.001s18.167 21.334 25.5 32.001
c3.33301 -25.333 14.166 -46.333 32.499 -63s45.5 -25 81.5 -25c14 0 27.5 1.33301 40.5 4s23.167 5.66699 30.5 9v85h-14c-18 0 -29.833 4 -35.5 12s-8.5 20.667 -8.5 38v348h-142v-268c0 -35.333 -7.16699 -62.166 -21.5 -80.499s-36.5 -27.5 -66.5 -27.5
c-22 0 -38.5 6 -49.5 18s-16.5 28.667 -16.5 50v308h-142z" />
    <glyph glyph-name="paragraph" unicode="&#xb6;" horiz-adv-x="561" 
d="M501 -140v805.999h-211c-40 0 -76.667 -5.66699 -110 -17s-61.833 -28 -85.5 -50s-42 -49.167 -55 -81.5s-19.5 -69.166 -19.5 -110.499c0 -40.667 6.83301 -77 20.5 -109s32.5 -59 56.5 -81s52.5 -38.833 85.5 -50.5s68.833 -17.5 107.5 -17.5v429h103v-718h108z" />
    <glyph glyph-name="periodcentered" unicode="&#xb7;" horiz-adv-x="276" 
d="M55 273c0 -24.667 7.66699 -44.5 23 -59.5s35.333 -22.5 60 -22.5s44.667 7.5 60 22.5s23 34.833 23 59.5s-7.66699 44.5 -23 59.5s-35.333 22.5 -60 22.5s-44.667 -7.5 -60 -22.5s-23 -34.833 -23 -59.5z" />
    <glyph glyph-name="cedilla" unicode="&#xb8;" horiz-adv-x="315" 
d="M250 -104c0 24.667 -8.83203 41.002 -26.499 49.002s-42.5 12.667 -74.5 14l7 41h-63l-20 -91c19.333 -0.666992 33.833 -1.83398 43.5 -3.50098s14.5 -6.83398 14.5 -15.501c0 -5.33301 -2 -9.5 -6 -12.5s-9.33301 -5.33301 -16 -7s-13.834 -2.83398 -21.501 -3.50098
l-22.5 -2l4 -53c24.667 0 48 1.5 70 4.5s41.167 7.83301 57.5 14.5s29.333 15.334 39 26.001s14.5 23.667 14.5 39z" />
    <glyph glyph-name="onesuperior" unicode="&#xb9;" horiz-adv-x="249" 
d="M214 390v380h-88l-101 -20l8 -88l75 11v-283h106z" />
    <glyph glyph-name="ordmasculine" unicode="&#xba;" horiz-adv-x="388" 
d="M353 508c0 24.667 -3.33105 47.167 -9.99805 67.5s-16.834 38 -30.501 53s-30.334 26.667 -50.001 35s-42.5 12.5 -68.5 12.5s-48.833 -4.16699 -68.5 -12.5s-36.334 -20 -50.001 -35s-23.834 -32.667 -30.501 -53s-10 -42.833 -10 -67.5
c0 -49.333 13.333 -89.333 40 -120s66.334 -46 119.001 -46s92.334 15.333 119.001 46s40 70.667 40 120zM253.002 508c0 -30 -4.5 -52.333 -13.5 -67s-24.167 -22 -45.5 -22s-36.5 7.33301 -45.5 22s-13.5 37 -13.5 67s4.5 52.333 13.5 67s24.167 22 45.5 22
s36.5 -7.33301 45.5 -22s13.5 -37 13.5 -67zM49.002 211h290v83h-290v-83z" />
    <glyph glyph-name="guillemotright" unicode="&#xbb;" horiz-adv-x="642" 
d="M469 455h-164l152 -207l-152 -207h164l153 207zM199 455h-164l152 -207l-152 -207h164l153 207z" />
    <glyph glyph-name="onequarter" unicode="&#xbc;" horiz-adv-x="806" 
d="M619 666h-120l-335 -666h120zM224 286v380h-88l-101 -20l8 -88l75 11v-283h106zM771 79v81h-45v220h-113l-166 -218v-83h177v-79h102v79h45zM624 160h-88l88 120v-120z" />
    <glyph glyph-name="onehalf" unicode="&#xbd;" horiz-adv-x="838" 
d="M619 666h-120l-335 -666h120zM224 286v380h-88l-101 -20l8 -88l75 11v-283h106zM794 0l0.00195312 83.9971h-169v1c0 4 2.5 8.33301 7.5 13s11.167 9.33398 18.5 14.001s15.166 9.33398 23.499 14.001l23.5 13c13.333 7.33301 26.333 15 39 23s23.834 17.333 33.501 28
s17.5 22.834 23.5 36.501s9 30.167 9 49.5c0 35.333 -11.833 62.333 -35.5 81s-57.834 28 -102.501 28c-25.333 0 -49.833 -3 -73.5 -9s-45.167 -14.333 -64.5 -25l24 -80c11.333 6.66699 25.166 13.167 41.499 19.5s34.833 9.5 55.5 9.5c32.667 0 49 -10.667 49 -32
c0 -15.333 -7.5 -27.666 -22.5 -36.999s-35.167 -21 -60.5 -35c-14.667 -8 -28.167 -16.333 -40.5 -25s-23 -18.834 -32 -30.501s-16 -25.167 -21 -40.5s-7.5 -34 -7.5 -56v-44h281z" />
    <glyph glyph-name="threequarters" unicode="&#xbe;" horiz-adv-x="831" 
d="M312 394c0 43.333 -21.668 71 -65.001 83c40.667 18.667 61 50.334 61 95.001c0 29.333 -11 53.166 -33 71.499s-55.333 27.5 -100 27.5c-26 0 -49.5 -2.83301 -70.5 -8.5s-41.5 -14.167 -61.5 -25.5l25 -74c12.667 6.66699 26 12.167 40 16.5s30 6.5 48 6.5
c12 0 22.5 -2.16699 31.5 -6.5s13.5 -12.833 13.5 -25.5c0 -24 -20.667 -36 -62 -36h-53v-85h54c21.333 0 37.5 -2.33301 48.5 -7s16.5 -13.667 16.5 -27c0 -12.667 -4.66699 -21.5 -14 -26.5s-22.333 -7.5 -39 -7.5s-32.834 1.83301 -48.501 5.5
s-30.5 8.83398 -44.5 15.501l-24 -75c18.667 -8.66699 39.334 -15.834 62.001 -21.501s45.334 -8.5 68.001 -8.5c46 0 82 10.667 108 32s39 48.333 39 81zM643.999 666h-120l-335 -666h120zM795.999 79v81h-45v220h-113l-166 -218v-83h177v-79h102v79h45zM648.999 160h-88
l88 120v-120z" />
    <glyph glyph-name="questiondown" unicode="&#xbf;" horiz-adv-x="474" 
d="M373 416c0 24.667 -7.66699 44.5 -23 59.5s-35.333 22.5 -60 22.5s-44.667 -7.5 -60 -22.5s-23 -34.833 -23 -59.5s7.66699 -44.5 23 -59.5s35.333 -22.5 60 -22.5s44.667 7.5 60 22.5s23 34.833 23 59.5zM35 -26c0 -55.333 19.332 -96.1699 57.999 -122.503
s90.667 -39.5 156 -39.5c36.667 0 72.834 4.5 108.501 13.5s64.5 19.5 86.5 31.5l-24 106c-21.333 -9.33301 -45.833 -17.833 -73.5 -25.5s-54.167 -11.5 -79.5 -11.5c-24.667 0 -45.834 3.5 -63.501 10.5s-26.5 21.5 -26.5 43.5c0 10 1.83301 18.833 5.5 26.5
s9.16699 15.167 16.5 22.5s16.333 15 27 23l37 28c14 10.667 26.5 21.334 37.5 32.001s20.333 22.167 28 34.5s13.667 26.166 18 41.499s6.5 33 6.5 53v44h-126v-24c0 -12 -1.66699 -22.333 -5 -31s-8 -16.834 -14 -24.501s-13.333 -15 -22 -22l-29 -22.5
c-20 -15.333 -37.5 -29.666 -52.5 -42.999s-27.667 -27.166 -38 -41.499s-18.166 -29.666 -23.499 -45.999s-8 -35.166 -8 -56.499z" />
    <glyph glyph-name="Agrave" unicode="&#xc0;" horiz-adv-x="656" 
d="M5 0h148l48 147h254l48 -147h148l-242 666h-162zM328 535l87 -266h-174zM391 726l-74 132h-194l127 -132h141z" />
    <glyph glyph-name="Aacute" unicode="&#xc1;" horiz-adv-x="656" 
d="M5 0h148l48 147h254l48 -147h148l-242 666h-162zM328 535l87 -266h-174zM532 858h-194l-74 -132h141z" />
    <glyph glyph-name="Acircumflex" unicode="&#xc2;" horiz-adv-x="656" 
d="M5 0h148l48 147h254l48 -147h148l-242 666h-162zM328 535l87 -266h-174zM395 858h-134l-116 -132h135l48 56l49 -56h135z" />
    <glyph glyph-name="Atilde" unicode="&#xc3;" horiz-adv-x="656" 
d="M5 0h148l48 147h254l48 -147h148l-242 666h-162zM328 535l87 -266h-174zM435 878c-3.33301 -10 -7.5 -19.833 -12.5 -29.5s-14.167 -14.5 -27.5 -14.5c-8 0 -17.5 2.16699 -28.5 6.5s-22.667 9.33301 -35 15s-25.333 10.667 -39 15s-26.834 6.5 -39.501 6.5
c-35.333 0 -62 -9.83301 -80 -29.5s-32.667 -49.167 -44 -88.5l93 -33c4.66699 12 9.66699 22.5 15 31.5s14.666 13.5 27.999 13.5c9.33301 0 20.333 -2.33301 33 -7l40 -15c14 -5.33301 28 -10.333 42 -15s26.667 -7 38 -7c16.667 0 30.834 3.33301 42.501 10
s21.5 15.5 29.5 26.5s14.833 23.5 20.5 37.5s10.834 28.667 15.501 44z" />
    <glyph glyph-name="Adieresis" unicode="&#xc4;" horiz-adv-x="656" 
d="M5 0h148l48 147h254l48 -147h148l-242 666h-162zM328 535l87 -266h-174zM361 793c0 -20 6 -36.167 18 -48.5s29.667 -18.5 53 -18.5s41 6.16699 53 18.5s18 28.5 18 48.5s-6 36.167 -18 48.5s-29.667 18.5 -53 18.5s-41 -6.16699 -53 -18.5s-18 -28.5 -18 -48.5zM154 793
c0 -20 6 -36.167 18 -48.5s29.667 -18.5 53 -18.5s41 6.16699 53 18.5s18 28.5 18 48.5s-6 36.167 -18 48.5s-29.667 18.5 -53 18.5s-41 -6.16699 -53 -18.5s-18 -28.5 -18 -48.5z" />
    <glyph glyph-name="Aring" unicode="&#xc5;" horiz-adv-x="656" 
d="M431 724c0 24 -8.33301 45 -25 63s-42.667 27 -78 27s-61.333 -9 -78 -27s-25 -39 -25 -63c0 -23.333 7 -43 21 -59l-241 -665h148l48 147h254l48 -147h148l-242 665c7.33301 8 12.833 17 16.5 27s5.5 20.667 5.5 32zM287 724c0 12.667 3.66699 22.332 11 28.999
s17.333 10 30 10c27.333 0 41 -13 41 -39s-13.667 -39 -41 -39c-12.667 0 -22.667 3.33301 -30 10s-11 16.334 -11 29.001zM328 534.998l87 -266h-174z" />
    <glyph glyph-name="AE" unicode="&#xc6;" horiz-adv-x="880" 
d="M503 0h332v126h-237l-48 152h265v126h-305l-43 136h368v126h-588l-242 -666h148l49 149h252zM328 545l87 -276h-174z" />
    <glyph glyph-name="Ccedilla" unicode="&#xc7;" horiz-adv-x="585" 
d="M479 -104c0 24.667 -8.83203 41 -26.499 49s-42.5 12.667 -74.5 14l5 30c38.667 1.33301 72.667 5.66602 102 12.999s53 15.666 71 24.999l-22 115c-19.333 -8 -41.833 -14.667 -67.5 -20s-49.834 -8 -72.501 -8c-71.333 0 -125.5 17.833 -162.5 53.5
s-55.5 90.834 -55.5 165.501s18.5 129.834 55.5 165.501s91.167 53.5 162.5 53.5c22.667 0 46.834 -2.66699 72.501 -8s48.167 -12 67.5 -20l22 115c-19.333 10 -45.5 19 -78.5 27s-71.5 12 -115.5 12c-49.333 0 -94.5 -7.83301 -135.5 -23.5s-76 -38.167 -105 -67.5
s-51.5 -65.5 -67.5 -108.5s-24 -91.5 -24 -145.5c0 -50.667 6.83301 -96.167 20.5 -136.5s33.167 -75.166 58.5 -104.499s55.833 -52.666 91.5 -69.999s75.5 -28 119.5 -32l-18 -81c19.333 -0.666992 33.833 -1.83398 43.5 -3.50098s14.5 -6.83398 14.5 -15.501
c0 -5.33301 -2 -9.5 -6 -12.5s-9.33301 -5.33301 -16 -7s-13.834 -2.83398 -21.501 -3.50098l-22.5 -2l4 -53c24.667 0 48 1.5 70 4.5s41.167 7.83301 57.5 14.5s29.333 15.334 39 26.001s14.5 23.667 14.5 39z" />
    <glyph glyph-name="Egrave" unicode="&#xc8;" horiz-adv-x="568" 
d="M65 0h458v126h-312v152h292v126h-292v136h312v126h-458v-666zM389 726l-74 132h-194l127 -132h141z" />
    <glyph glyph-name="Eacute" unicode="&#xc9;" horiz-adv-x="568" 
d="M65 0h458v126h-312v152h292v126h-292v136h312v126h-458v-666zM477 858h-194l-74 -132h141z" />
    <glyph glyph-name="Ecircumflex" unicode="&#xca;" horiz-adv-x="568" 
d="M65 0h458v126h-312v152h292v126h-292v136h312v126h-458v-666zM367 858h-134l-116 -132h135l48 56l49 -56h135z" />
    <glyph glyph-name="Edieresis" unicode="&#xcb;" horiz-adv-x="568" 
d="M65 0h458v126h-312v152h292v126h-292v136h312v126h-458v-666zM334 793c0 -20 6 -36.167 18 -48.5s29.667 -18.5 53 -18.5s41 6.16699 53 18.5s18 28.5 18 48.5s-6 36.167 -18 48.5s-29.667 18.5 -53 18.5s-41 -6.16699 -53 -18.5s-18 -28.5 -18 -48.5zM127 793
c0 -20 6 -36.167 18 -48.5s29.667 -18.5 53 -18.5s41 6.16699 53 18.5s18 28.5 18 48.5s-6 36.167 -18 48.5s-29.667 18.5 -53 18.5s-41 -6.16699 -53 -18.5s-18 -28.5 -18 -48.5z" />
    <glyph glyph-name="Igrave" unicode="&#xcc;" horiz-adv-x="286" 
d="M70 0h146v666h-146v-666zM214 726l-74 132h-194l127 -132h141z" />
    <glyph glyph-name="Iacute" unicode="&#xcd;" horiz-adv-x="286" 
d="M70 0h146v666h-146v-666zM343 858h-194l-74 -132h141z" />
    <glyph glyph-name="Icircumflex" unicode="&#xce;" horiz-adv-x="286" 
d="M70 0h146v666h-146v-666zM211 858h-134l-116 -132h135l48 56l49 -56h135z" />
    <glyph glyph-name="Idieresis" unicode="&#xcf;" horiz-adv-x="286" 
d="M70 0h146v666h-146v-666zM177 793c0 -20 6 -36.167 18 -48.5s29.667 -18.5 53 -18.5s41 6.16699 53 18.5s18 28.5 18 48.5s-6 36.167 -18 48.5s-29.667 18.5 -53 18.5s-41 -6.16699 -53 -18.5s-18 -28.5 -18 -48.5zM-30 793c0 -20 6 -36.167 18 -48.5
s29.667 -18.5 53 -18.5s41 6.16699 53 18.5s18 28.5 18 48.5s-6 36.167 -18 48.5s-29.667 18.5 -53 18.5s-41 -6.16699 -53 -18.5s-18 -28.5 -18 -48.5z" />
    <glyph glyph-name="Eth" unicode="&#xd0;" horiz-adv-x="696" 
d="M18 271h61v-271h256c50.667 0 96.5 8 137.5 24s76 38.667 105 68s51.333 64.333 67 105s23.5 86 23.5 136s-7.83301 95.333 -23.5 136s-38 75.667 -67 105s-64 52 -105 68s-86.833 24 -137.5 24h-256v-271h-61v-124zM522 333c0 -36 -5 -67.167 -15 -93.5
s-23.833 -48 -41.5 -65s-38.334 -29.667 -62.001 -38s-48.834 -12.5 -75.501 -12.5h-103v147h170v124h-170v147h103c26.667 0 51.834 -4.16699 75.501 -12.5s44.334 -21 62.001 -38s31.5 -38.667 41.5 -65s15 -57.5 15 -93.5z" />
    <glyph glyph-name="Ntilde" unicode="&#xd1;" horiz-adv-x="714" 
d="M65 0h142v424l297 -424h145v666h-142v-424l-297 424h-145v-666zM464 878c-3.33301 -10 -7.5 -19.833 -12.5 -29.5s-14.167 -14.5 -27.5 -14.5c-8 0 -17.5 2.16699 -28.5 6.5s-22.667 9.33301 -35 15s-25.333 10.667 -39 15s-26.834 6.5 -39.501 6.5
c-35.333 0 -62 -9.83301 -80 -29.5s-32.667 -49.167 -44 -88.5l93 -33c4.66699 12 9.66699 22.5 15 31.5s14.666 13.5 27.999 13.5c9.33301 0 20.333 -2.33301 33 -7l40 -15c14 -5.33301 28 -10.333 42 -15s26.667 -7 38 -7c16.667 0 30.834 3.33301 42.501 10
s21.5 15.5 29.5 26.5s14.833 23.5 20.5 37.5s10.834 28.667 15.501 44z" />
    <glyph glyph-name="Ograve" unicode="&#xd2;" horiz-adv-x="698" 
d="M30 333c0 -49.333 6.5 -95.166 19.5 -137.499s32.667 -78.833 59 -109.5s59.5 -54.667 99.5 -72s87 -26 141 -26s101 8.66699 141 26s73.167 41.333 99.5 72s46 67.167 59 109.5s19.5 88.166 19.5 137.499s-6.5 95.166 -19.5 137.499s-32.667 78.833 -59 109.5
s-59.5 54.667 -99.5 72s-87 26 -141 26s-101 -8.66699 -141 -26s-73.167 -41.333 -99.5 -72s-46 -67.167 -59 -109.5s-19.5 -88.166 -19.5 -137.499zM349 112c-30.667 0 -56.834 5.33301 -78.501 16s-39.5 25.834 -53.5 45.501s-24.333 43 -31 70s-10 56.833 -10 89.5
s3.33301 62.5 10 89.5s17 50.167 31 69.5s31.833 34.5 53.5 45.5s47.834 16.5 78.501 16.5s56.834 -5.5 78.501 -16.5s39.5 -26.167 53.5 -45.5s24.333 -42.5 31 -69.5s10 -56.833 10 -89.5s-3.33301 -62.5 -10 -89.5s-17 -50.333 -31 -70s-31.833 -34.834 -53.5 -45.501
s-47.834 -16 -78.501 -16zM424 726l-74 132h-194l127 -132h141z" />
    <glyph glyph-name="Oacute" unicode="&#xd3;" horiz-adv-x="698" 
d="M30 333c0 -49.333 6.5 -95.166 19.5 -137.499s32.667 -78.833 59 -109.5s59.5 -54.667 99.5 -72s87 -26 141 -26s101 8.66699 141 26s73.167 41.333 99.5 72s46 67.167 59 109.5s19.5 88.166 19.5 137.499s-6.5 95.166 -19.5 137.499s-32.667 78.833 -59 109.5
s-59.5 54.667 -99.5 72s-87 26 -141 26s-101 -8.66699 -141 -26s-73.167 -41.333 -99.5 -72s-46 -67.167 -59 -109.5s-19.5 -88.166 -19.5 -137.499zM349 112c-30.667 0 -56.834 5.33301 -78.501 16s-39.5 25.834 -53.5 45.501s-24.333 43 -31 70s-10 56.833 -10 89.5
s3.33301 62.5 10 89.5s17 50.167 31 69.5s31.833 34.5 53.5 45.5s47.834 16.5 78.501 16.5s56.834 -5.5 78.501 -16.5s39.5 -26.167 53.5 -45.5s24.333 -42.5 31 -69.5s10 -56.833 10 -89.5s-3.33301 -62.5 -10 -89.5s-17 -50.333 -31 -70s-31.833 -34.834 -53.5 -45.501
s-47.834 -16 -78.501 -16zM542 858h-194l-74 -132h141z" />
    <glyph glyph-name="Ocircumflex" unicode="&#xd4;" horiz-adv-x="698" 
d="M30 333c0 -49.333 6.5 -95.166 19.5 -137.499s32.667 -78.833 59 -109.5s59.5 -54.667 99.5 -72s87 -26 141 -26s101 8.66699 141 26s73.167 41.333 99.5 72s46 67.167 59 109.5s19.5 88.166 19.5 137.499s-6.5 95.166 -19.5 137.499s-32.667 78.833 -59 109.5
s-59.5 54.667 -99.5 72s-87 26 -141 26s-101 -8.66699 -141 -26s-73.167 -41.333 -99.5 -72s-46 -67.167 -59 -109.5s-19.5 -88.166 -19.5 -137.499zM349 112c-30.667 0 -56.834 5.33301 -78.501 16s-39.5 25.834 -53.5 45.501s-24.333 43 -31 70s-10 56.833 -10 89.5
s3.33301 62.5 10 89.5s17 50.167 31 69.5s31.833 34.5 53.5 45.5s47.834 16.5 78.501 16.5s56.834 -5.5 78.501 -16.5s39.5 -26.167 53.5 -45.5s24.333 -42.5 31 -69.5s10 -56.833 10 -89.5s-3.33301 -62.5 -10 -89.5s-17 -50.333 -31 -70s-31.833 -34.834 -53.5 -45.501
s-47.834 -16 -78.501 -16zM416 858h-134l-116 -132h135l48 56l49 -56h135z" />
    <glyph glyph-name="Otilde" unicode="&#xd5;" horiz-adv-x="698" 
d="M30 333c0 -49.333 6.5 -95.166 19.5 -137.499s32.667 -78.833 59 -109.5s59.5 -54.667 99.5 -72s87 -26 141 -26s101 8.66699 141 26s73.167 41.333 99.5 72s46 67.167 59 109.5s19.5 88.166 19.5 137.499s-6.5 95.166 -19.5 137.499s-32.667 78.833 -59 109.5
s-59.5 54.667 -99.5 72s-87 26 -141 26s-101 -8.66699 -141 -26s-73.167 -41.333 -99.5 -72s-46 -67.167 -59 -109.5s-19.5 -88.166 -19.5 -137.499zM349 112c-30.667 0 -56.834 5.33301 -78.501 16s-39.5 25.834 -53.5 45.501s-24.333 43 -31 70s-10 56.833 -10 89.5
s3.33301 62.5 10 89.5s17 50.167 31 69.5s31.833 34.5 53.5 45.5s47.834 16.5 78.501 16.5s56.834 -5.5 78.501 -16.5s39.5 -26.167 53.5 -45.5s24.333 -42.5 31 -69.5s10 -56.833 10 -89.5s-3.33301 -62.5 -10 -89.5s-17 -50.333 -31 -70s-31.833 -34.834 -53.5 -45.501
s-47.834 -16 -78.501 -16zM455 878c-3.33301 -10 -7.5 -19.833 -12.5 -29.5s-14.167 -14.5 -27.5 -14.5c-8 0 -17.5 2.16699 -28.5 6.5s-22.667 9.33301 -35 15s-25.333 10.667 -39 15s-26.834 6.5 -39.501 6.5c-35.333 0 -62 -9.83301 -80 -29.5s-32.667 -49.167 -44 -88.5
l93 -33c4.66699 12 9.66699 22.5 15 31.5s14.666 13.5 27.999 13.5c9.33301 0 20.333 -2.33301 33 -7l40 -15c14 -5.33301 28 -10.333 42 -15s26.667 -7 38 -7c16.667 0 30.834 3.33301 42.501 10s21.5 15.5 29.5 26.5s14.833 23.5 20.5 37.5s10.834 28.667 15.501 44z" />
    <glyph glyph-name="Odieresis" unicode="&#xd6;" horiz-adv-x="698" 
d="M30 333c0 -49.333 6.5 -95.166 19.5 -137.499s32.667 -78.833 59 -109.5s59.5 -54.667 99.5 -72s87 -26 141 -26s101 8.66699 141 26s73.167 41.333 99.5 72s46 67.167 59 109.5s19.5 88.166 19.5 137.499s-6.5 95.166 -19.5 137.499s-32.667 78.833 -59 109.5
s-59.5 54.667 -99.5 72s-87 26 -141 26s-101 -8.66699 -141 -26s-73.167 -41.333 -99.5 -72s-46 -67.167 -59 -109.5s-19.5 -88.166 -19.5 -137.499zM349 112c-30.667 0 -56.834 5.33301 -78.501 16s-39.5 25.834 -53.5 45.501s-24.333 43 -31 70s-10 56.833 -10 89.5
s3.33301 62.5 10 89.5s17 50.167 31 69.5s31.833 34.5 53.5 45.5s47.834 16.5 78.501 16.5s56.834 -5.5 78.501 -16.5s39.5 -26.167 53.5 -45.5s24.333 -42.5 31 -69.5s10 -56.833 10 -89.5s-3.33301 -62.5 -10 -89.5s-17 -50.333 -31 -70s-31.833 -34.834 -53.5 -45.501
s-47.834 -16 -78.501 -16zM382 793c0 -20 6 -36.167 18 -48.5s29.667 -18.5 53 -18.5s41 6.16699 53 18.5s18 28.5 18 48.5s-6 36.167 -18 48.5s-29.667 18.5 -53 18.5s-41 -6.16699 -53 -18.5s-18 -28.5 -18 -48.5zM175 793c0 -20 6 -36.167 18 -48.5
s29.667 -18.5 53 -18.5s41 6.16699 53 18.5s18 28.5 18 48.5s-6 36.167 -18 48.5s-29.667 18.5 -53 18.5s-41 -6.16699 -53 -18.5s-18 -28.5 -18 -48.5z" />
    <glyph glyph-name="multiply" unicode="&#xd7;" horiz-adv-x="546" 
d="M414 95l87 87l-142 141l142 141l-87 87l-141 -142l-141 142l-87 -87l142 -141l-142 -141l87 -87l141 142z" />
    <glyph glyph-name="Oslash" unicode="&#xd8;" horiz-adv-x="698" 
d="M30 333c0 -68.667 12.167 -129.5 36.5 -182.5s61.833 -93.833 112.5 -122.5l-45 -112h96l32 81c26.667 -6 55.667 -9 87 -9c54 0 101 8.66699 141 26s73.167 41.333 99.5 72s46 67.167 59 109.5s19.5 88.166 19.5 137.499c0 68 -12.333 128.5 -37 181.5
s-62 93.833 -112 122.5l46 113h-96l-33 -81c-27.333 6 -56.333 9 -87 9c-54 0 -101 -8.66699 -141 -26s-73.167 -41.333 -99.5 -72s-46 -67.167 -59 -109.5s-19.5 -88.166 -19.5 -137.499zM176 333c0 32.667 3.33301 62.5 10 89.5s17 50.167 31 69.5s31.833 34.5 53.5 45.5
s47.834 16.5 78.501 16.5c15.333 0 28.333 -1.33301 39 -4l-158 -393c-18.667 19.333 -32.334 44 -41.001 74s-13 64 -13 102zM349 112c-14 0 -27 1.00098 -39 3.00098l158 393c18.667 -19.333 32.334 -44 41.001 -74s13 -63.667 13 -101
c0 -32.667 -3.33301 -62.5 -10 -89.5s-17 -50.333 -31 -70s-31.833 -34.834 -53.5 -45.501s-47.834 -16 -78.501 -16z" />
    <glyph glyph-name="Ugrave" unicode="&#xd9;" horiz-adv-x="688" 
d="M625 666h-146.002v-420c0 -44 -12.167 -77.333 -36.5 -100s-57.166 -34 -98.499 -34s-74.166 11.333 -98.499 34s-36.5 56 -36.5 100v420h-146v-412c0 -36 5.83301 -70.167 17.5 -102.5s29.167 -60.666 52.5 -84.999s52.5 -43.5 87.5 -57.5s76.167 -21 123.5 -21
s88.5 7 123.5 21s64.167 33.167 87.5 57.5s40.833 52.666 52.5 84.999s17.5 66.5 17.5 102.5v412zM429.998 726l-74 132h-194l127 -132h141z" />
    <glyph glyph-name="Uacute" unicode="&#xda;" horiz-adv-x="688" 
d="M625 666h-146.002v-420c0 -44 -12.167 -77.333 -36.5 -100s-57.166 -34 -98.499 -34s-74.166 11.333 -98.499 34s-36.5 56 -36.5 100v420h-146v-412c0 -36 5.83301 -70.167 17.5 -102.5s29.167 -60.666 52.5 -84.999s52.5 -43.5 87.5 -57.5s76.167 -21 123.5 -21
s88.5 7 123.5 21s64.167 33.167 87.5 57.5s40.833 52.666 52.5 84.999s17.5 66.5 17.5 102.5v412zM523.998 858h-194l-74 -132h141z" />
    <glyph glyph-name="Ucircumflex" unicode="&#xdb;" horiz-adv-x="688" 
d="M625 666h-146.002v-420c0 -44 -12.167 -77.333 -36.5 -100s-57.166 -34 -98.499 -34s-74.166 11.333 -98.499 34s-36.5 56 -36.5 100v420h-146v-412c0 -36 5.83301 -70.167 17.5 -102.5s29.167 -60.666 52.5 -84.999s52.5 -43.5 87.5 -57.5s76.167 -21 123.5 -21
s88.5 7 123.5 21s64.167 33.167 87.5 57.5s40.833 52.666 52.5 84.999s17.5 66.5 17.5 102.5v412zM410.998 858h-134l-116 -132h135l48 56l49 -56h135z" />
    <glyph glyph-name="Udieresis" unicode="&#xdc;" horiz-adv-x="688" 
d="M625 666h-146.002v-420c0 -44 -12.167 -77.333 -36.5 -100s-57.166 -34 -98.499 -34s-74.166 11.333 -98.499 34s-36.5 56 -36.5 100v420h-146v-412c0 -36 5.83301 -70.167 17.5 -102.5s29.167 -60.666 52.5 -84.999s52.5 -43.5 87.5 -57.5s76.167 -21 123.5 -21
s88.5 7 123.5 21s64.167 33.167 87.5 57.5s40.833 52.666 52.5 84.999s17.5 66.5 17.5 102.5v412zM376.998 793c0 -20 6 -36.167 18 -48.5s29.667 -18.5 53 -18.5s41 6.16699 53 18.5s18 28.5 18 48.5s-6 36.167 -18 48.5s-29.667 18.5 -53 18.5s-41 -6.16699 -53 -18.5
s-18 -28.5 -18 -48.5zM169.998 793c0 -20 6 -36.167 18 -48.5s29.667 -18.5 53 -18.5s41 6.16699 53 18.5s18 28.5 18 48.5s-6 36.167 -18 48.5s-29.667 18.5 -53 18.5s-41 -6.16699 -53 -18.5s-18 -28.5 -18 -48.5z" />
    <glyph glyph-name="Yacute" unicode="&#xdd;" 
d="M567 666h-154l-131 -278l-131 278h-154l212 -407v-259h146v259zM470 858h-194l-74 -132h141z" />
    <glyph glyph-name="Thorn" unicode="&#xde;" horiz-adv-x="611" 
d="M591 339c0 31.333 -5.33301 60.3311 -16 86.998s-25.667 49.667 -45 69s-42.833 34.333 -70.5 45s-58.834 16 -93.501 16h-155v110h-146v-666h146v120h155c33.333 0 63.833 5.66699 91.5 17s51.334 26.833 71.001 46.5s35 42.834 46 69.501s16.5 55.334 16.5 86.001z
M445 338.998c0 -32.667 -9.00098 -57.833 -27.001 -75.5s-42 -26.5 -72 -26.5h-135v202h135c28.667 0 52.334 -8.5 71.001 -25.5s28 -41.833 28 -74.5z" />
    <glyph glyph-name="germandbls" unicode="&#xdf;" horiz-adv-x="584" 
d="M198 0l-0.000976562 430.003c0 41.333 8 74.166 24 98.499s41 36.5 75 36.5c19.333 0 34.666 -4.33301 45.999 -13s17 -20.667 17 -36s-4.5 -29.5 -13.5 -42.5s-18.833 -26.167 -29.5 -39.5c-13.333 -17.333 -25.333 -35.833 -36 -55.5s-16 -42.167 -16 -67.5
c0 -32 8.66699 -58.5 26 -79.5s45 -39.5 83 -55.5c17.333 -7.33301 31 -14 41 -20s15 -14.333 15 -25c0 -25.333 -19.667 -38 -59 -38c-13.333 0 -28.333 1.5 -45 4.5s-31.667 7.16699 -45 12.5l-18 -98c18.667 -7.33301 39.834 -12.833 63.501 -16.5s47.167 -5.5 70.5 -5.5
c26.667 0 50.667 3.66699 72 11s39.5 17.5 54.5 30.5s26.333 28.5 34 46.5s11.5 38 11.5 60c0 17.333 -2.5 32.666 -7.5 45.999s-12 25.166 -21 35.499s-19.833 19.833 -32.5 28.5s-26.667 17 -42 25c-18.667 9.33301 -33.5 17.333 -44.5 24s-16.5 15.667 -16.5 27
c0 14 5.83301 27.667 17.5 41s23.167 27.666 34.5 42.999c10.667 14.667 20.5 31.167 29.5 49.5s13.5 40.166 13.5 65.499c0 22 -4.33301 42.333 -13 61s-21.167 34.834 -37.5 48.501s-36.166 24.334 -59.499 32.001s-50 11.5 -80 11.5
c-38.667 0 -73.5 -4.83301 -104.5 -14.5s-57.5 -24.5 -79.5 -44.5s-38.833 -45.5 -50.5 -76.5s-17.5 -67.5 -17.5 -109.5v-431h140z" />
    <glyph glyph-name="agrave" unicode="&#xe0;" horiz-adv-x="539" 
d="M486 0l-0.00195312 321.998c0 60.667 -18 105.167 -54 133.5s-89.333 42.5 -160 42.5c-36.667 0 -72 -4.16699 -106 -12.5s-64.667 -19.5 -92 -33.5l24 -110c22 10.667 45.333 19.334 70 26.001s53 10 85 10c60.667 0 91 -20.667 91 -62v-23h-129
c-25.333 0 -48.666 -2.66699 -69.999 -8s-39.666 -14.166 -54.999 -26.499s-27.5 -28.5 -36.5 -48.5s-13.5 -44.333 -13.5 -73c0 -46 13.333 -82 40 -108s64 -39 112 -39c34 0 65 6.33301 93 19s50 29.667 66 51v-60h135zM343.998 170.998
c0 -26.667 -9.16699 -47.167 -27.5 -61.5s-42.5 -21.5 -72.5 -21.5c-42.667 0 -64 18 -64 54c0 35.333 20.333 53 61 53h103v-24zM213.998 547.998h139l-50 152h-182z" />
    <glyph glyph-name="aacute" unicode="&#xe1;" horiz-adv-x="539" 
d="M486 0l-0.00195312 321.998c0 60.667 -18 105.167 -54 133.5s-89.333 42.5 -160 42.5c-36.667 0 -72 -4.16699 -106 -12.5s-64.667 -19.5 -92 -33.5l24 -110c22 10.667 45.333 19.334 70 26.001s53 10 85 10c60.667 0 91 -20.667 91 -62v-23h-129
c-25.333 0 -48.666 -2.66699 -69.999 -8s-39.666 -14.166 -54.999 -26.499s-27.5 -28.5 -36.5 -48.5s-13.5 -44.333 -13.5 -73c0 -46 13.333 -82 40 -108s64 -39 112 -39c34 0 65 6.33301 93 19s50 29.667 66 51v-60h135zM343.998 170.998
c0 -26.667 -9.16699 -47.167 -27.5 -61.5s-42.5 -21.5 -72.5 -21.5c-42.667 0 -64 18 -64 54c0 35.333 20.333 53 61 53h103v-24zM200.998 547.998h139l93 152h-182z" />
    <glyph glyph-name="acircumflex" unicode="&#xe2;" horiz-adv-x="539" 
d="M486 0l-0.00195312 321.998c0 60.667 -18 105.167 -54 133.5s-89.333 42.5 -160 42.5c-36.667 0 -72 -4.16699 -106 -12.5s-64.667 -19.5 -92 -33.5l24 -110c22 10.667 45.333 19.334 70 26.001s53 10 85 10c60.667 0 91 -20.667 91 -62v-23h-129
c-25.333 0 -48.666 -2.66699 -69.999 -8s-39.666 -14.166 -54.999 -26.499s-27.5 -28.5 -36.5 -48.5s-13.5 -44.333 -13.5 -73c0 -46 13.333 -82 40 -108s64 -39 112 -39c34 0 65 6.33301 93 19s50 29.667 66 51v-60h135zM343.998 170.998
c0 -26.667 -9.16699 -47.167 -27.5 -61.5s-42.5 -21.5 -72.5 -21.5c-42.667 0 -64 18 -64 54c0 35.333 20.333 53 61 53h103v-24zM350.998 699.998h-138l-106 -152h129l46 71l46 -71h129z" />
    <glyph glyph-name="atilde" unicode="&#xe3;" horiz-adv-x="539" 
d="M486 0l-0.00195312 321.998c0 60.667 -18 105.167 -54 133.5s-89.333 42.5 -160 42.5c-36.667 0 -72 -4.16699 -106 -12.5s-64.667 -19.5 -92 -33.5l24 -110c22 10.667 45.333 19.334 70 26.001s53 10 85 10c60.667 0 91 -20.667 91 -62v-23h-129
c-25.333 0 -48.666 -2.66699 -69.999 -8s-39.666 -14.166 -54.999 -26.499s-27.5 -28.5 -36.5 -48.5s-13.5 -44.333 -13.5 -73c0 -46 13.333 -82 40 -108s64 -39 112 -39c34 0 65 6.33301 93 19s50 29.667 66 51v-60h135zM343.998 170.998
c0 -26.667 -9.16699 -47.167 -27.5 -61.5s-42.5 -21.5 -72.5 -21.5c-42.667 0 -64 18 -64 54c0 35.333 20.333 53 61 53h103v-24zM385.998 699.998c-3.33301 -9.33301 -7.49805 -19 -12.498 -29s-14.167 -15 -27.5 -15c-8 0 -17 2.16699 -27 6.5s-20.833 9.33301 -32.5 15
s-23.834 10.667 -36.501 15s-25 6.5 -37 6.5c-33.333 0 -58.666 -9.66699 -75.999 -29s-32.333 -49 -45 -89l89 -33c4.66699 12 9.66699 22.5 15 31.5s14.666 13.5 27.999 13.5c9.33301 0 19.666 -2.33301 30.999 -7l35.5 -15c12.333 -5.33301 24.833 -10.333 37.5 -15
s25 -7 37 -7c17.333 0 32.166 3.33301 44.499 10s22.833 15.5 31.5 26.5s15.834 23.667 21.501 38s10.5 28.833 14.5 43.5z" />
    <glyph glyph-name="adieresis" unicode="&#xe4;" horiz-adv-x="539" 
d="M486 0l-0.00195312 321.998c0 60.667 -18 105.167 -54 133.5s-89.333 42.5 -160 42.5c-36.667 0 -72 -4.16699 -106 -12.5s-64.667 -19.5 -92 -33.5l24 -110c22 10.667 45.333 19.334 70 26.001s53 10 85 10c60.667 0 91 -20.667 91 -62v-23h-129
c-25.333 0 -48.666 -2.66699 -69.999 -8s-39.666 -14.166 -54.999 -26.499s-27.5 -28.5 -36.5 -48.5s-13.5 -44.333 -13.5 -73c0 -46 13.333 -82 40 -108s64 -39 112 -39c34 0 65 6.33301 93 19s50 29.667 66 51v-60h135zM343.998 170.998
c0 -26.667 -9.16699 -47.167 -27.5 -61.5s-42.5 -21.5 -72.5 -21.5c-42.667 0 -64 18 -64 54c0 35.333 20.333 53 61 53h103v-24zM308.998 622.998c0 -19.333 6.16699 -35.666 18.5 -48.999s29.833 -20 52.5 -20s40.167 6.66699 52.5 20s18.5 29.666 18.5 48.999
s-6.16699 35.666 -18.5 48.999s-29.833 20 -52.5 20s-40.167 -6.66699 -52.5 -20s-18.5 -29.666 -18.5 -48.999zM112.998 622.998c0 -19.333 6.16699 -35.666 18.5 -48.999s29.833 -20 52.5 -20s40.167 6.66699 52.5 20s18.5 29.666 18.5 48.999
s-6.16699 35.666 -18.5 48.999s-29.833 20 -52.5 20s-40.167 -6.66699 -52.5 -20s-18.5 -29.666 -18.5 -48.999z" />
    <glyph glyph-name="aring" unicode="&#xe5;" horiz-adv-x="539" 
d="M486 0l-0.00195312 321.998c0 60.667 -18 105.167 -54 133.5s-89.333 42.5 -160 42.5c-36.667 0 -72 -4.16699 -106 -12.5s-64.667 -19.5 -92 -33.5l24 -110c22 10.667 45.333 19.334 70 26.001s53 10 85 10c60.667 0 91 -20.667 91 -62v-23h-129
c-25.333 0 -48.666 -2.66699 -69.999 -8s-39.666 -14.166 -54.999 -26.499s-27.5 -28.5 -36.5 -48.5s-13.5 -44.333 -13.5 -73c0 -46 13.333 -82 40 -108s64 -39 112 -39c34 0 65 6.33301 93 19s50 29.667 66 51v-60h135zM343.998 170.998
c0 -26.667 -9.16699 -47.167 -27.5 -61.5s-42.5 -21.5 -72.5 -21.5c-42.667 0 -64 18 -64 54c0 35.333 20.333 53 61 53h103v-24zM381.998 637.998c0 24 -8.33301 45 -25 63s-42.667 27 -78 27s-61.333 -9 -78 -27s-25 -39 -25 -63s8.33301 -45 25 -63s42.667 -27 78 -27
s61.333 9 78 27s25 39 25 63zM237.998 637.998c0 12.667 3.66699 22.332 11 28.999s17.333 10 30 10c27.333 0 41 -13 41 -39s-13.667 -39 -41 -39c-12.667 0 -22.667 3.33301 -30 10s-11 16.334 -11 29.001z" />
    <glyph glyph-name="ae" unicode="&#xe6;" horiz-adv-x="826" 
d="M798 192l-0.000976562 65.999c0 36 -4 68.667 -12 98s-20.5 54.5 -37.5 75.5s-38.667 37.333 -65 49s-57.833 17.5 -94.5 17.5c-42 0 -75.833 -6 -101.5 -18s-47.167 -28.667 -64.5 -50c-17.333 23.333 -39.166 40.5 -65.499 51.5s-58.5 16.5 -96.5 16.5
s-72 -4.16699 -102 -12.5s-56.333 -18.833 -79 -31.5l24 -106c23.333 10 46.666 17.5 69.999 22.5s50.333 7.5 81 7.5c30 0 53.333 -6.16699 70 -18.5s25 -31.166 25 -56.499v-12h-135c-56.667 0 -100 -12 -130 -36s-45 -61 -45 -111c0 -48.667 16.667 -86.5 50 -113.5
s79.333 -40.5 138 -40.5c42 0 79.833 7.33301 113.5 22s60.834 34.667 81.501 60c15.333 -23.333 39.333 -42.833 72 -58.5s69.667 -23.5 111 -23.5c36 0 69.667 3.83301 101 11.5s60.666 18.167 87.999 31.5l-24 96c-22.667 -10 -46.167 -18.167 -70.5 -24.5
s-50.166 -9.5 -77.499 -9.5c-40 0 -70 8 -90 24s-32.667 40.333 -38 73h303zM349.999 181.999c0 -34 -9 -58.5 -27 -73.5s-43.667 -22.5 -77 -22.5c-21.333 0 -38.333 4.83301 -51 14.5s-19 23.167 -19 40.5c0 34 19.667 51 59 51h115v-10zM586.999 400.999
c28 0 48.001 -8.66699 60.001 -26s18 -41 18 -71v-13h-171c3.33301 36 12.166 63.333 26.499 82s36.5 28 66.5 28z" />
    <glyph glyph-name="ccedilla" unicode="&#xe7;" horiz-adv-x="454" 
d="M386 -104c0 24.667 -8.83105 41.001 -26.498 49.001s-42.5 12.667 -74.5 14l5 31c27.333 1.33301 53.166 5 77.499 11s44.5 13.667 60.5 23l-21 104c-15.333 -7.33301 -32.166 -13.333 -50.499 -18s-38.166 -7 -59.499 -7c-24 0 -44.167 3.33301 -60.5 10
s-29.333 16.334 -39 29.001s-16.667 27.5 -21 44.5s-6.5 36.167 -6.5 57.5c0 20.667 2.16699 39.667 6.5 57s11.333 32.333 21 45s22.667 22.334 39 29.001s36.5 10 60.5 10c21.333 0 41.166 -2.33301 59.499 -7s35.166 -10.667 50.499 -18l21 104
c-17.333 10.667 -40 19 -68 25s-57 9 -87 9c-41.333 0 -77.333 -6.16699 -108 -18.5s-56.167 -29.5 -76.5 -51.5s-35.5 -48.667 -45.5 -80s-15 -66 -15 -104c0 -69.333 16.167 -126.333 48.5 -171s82.5 -71.334 150.5 -80.001l-18 -84
c19.333 -0.666992 33.833 -1.83398 43.5 -3.50098s14.5 -6.83398 14.5 -15.501c0 -5.33301 -2 -9.5 -6 -12.5s-9.33301 -5.33301 -16 -7s-13.834 -2.83398 -21.501 -3.50098l-22.5 -2l4 -53c24.667 0 48 1.5 70 4.5s41.167 7.83301 57.5 14.5s29.333 15.334 39 26.001
s14.5 23.667 14.5 39z" />
    <glyph glyph-name="egrave" unicode="&#xe8;" horiz-adv-x="504" 
d="M476 192l-0.000976562 66c0 36 -4 68.667 -12 98s-20.5 54.5 -37.5 75.5s-38.667 37.333 -65 49s-57.833 17.5 -94.5 17.5c-42 0 -78 -6.66699 -108 -20s-54.833 -31.5 -74.5 -54.5s-34 -50 -43 -81s-13.5 -63.833 -13.5 -98.5c0 -78.667 20.5 -140.667 61.5 -186
s104.167 -68 189.5 -68c37.333 0 72 3.83301 104 11.5s62 18.167 90 31.5l-24 96c-22.667 -10 -46.167 -18.167 -70.5 -24.5s-50.166 -9.5 -77.499 -9.5c-40 0 -70 8 -90 24s-32.667 40.333 -38 73h303zM264.999 401c28 0 48.001 -8.66699 60.001 -26s18 -41 18 -71v-13
h-171c3.33301 34.667 12.166 61.667 26.499 81s36.5 29 66.5 29zM190 548h139l-50 152h-182z" />
    <glyph glyph-name="eacute" unicode="&#xe9;" horiz-adv-x="504" 
d="M476 192l-0.000976562 66c0 36 -4 68.667 -12 98s-20.5 54.5 -37.5 75.5s-38.667 37.333 -65 49s-57.833 17.5 -94.5 17.5c-42 0 -78 -6.66699 -108 -20s-54.833 -31.5 -74.5 -54.5s-34 -50 -43 -81s-13.5 -63.833 -13.5 -98.5c0 -78.667 20.5 -140.667 61.5 -186
s104.167 -68 189.5 -68c37.333 0 72 3.83301 104 11.5s62 18.167 90 31.5l-24 96c-22.667 -10 -46.167 -18.167 -70.5 -24.5s-50.166 -9.5 -77.499 -9.5c-40 0 -70 8 -90 24s-32.667 40.333 -38 73h303zM264.999 401c28 0 48.001 -8.66699 60.001 -26s18 -41 18 -71v-13
h-171c3.33301 34.667 12.166 61.667 26.499 81s36.5 29 66.5 29zM190 548h139l93 152h-182z" />
    <glyph glyph-name="ecircumflex" unicode="&#xea;" horiz-adv-x="504" 
d="M476 192l-0.000976562 66c0 36 -4 68.667 -12 98s-20.5 54.5 -37.5 75.5s-38.667 37.333 -65 49s-57.833 17.5 -94.5 17.5c-42 0 -78 -6.66699 -108 -20s-54.833 -31.5 -74.5 -54.5s-34 -50 -43 -81s-13.5 -63.833 -13.5 -98.5c0 -78.667 20.5 -140.667 61.5 -186
s104.167 -68 189.5 -68c37.333 0 72 3.83301 104 11.5s62 18.167 90 31.5l-24 96c-22.667 -10 -46.167 -18.167 -70.5 -24.5s-50.166 -9.5 -77.499 -9.5c-40 0 -70 8 -90 24s-32.667 40.333 -38 73h303zM264.999 401c28 0 48.001 -8.66699 60.001 -26s18 -41 18 -71v-13
h-171c3.33301 34.667 12.166 61.667 26.499 81s36.5 29 66.5 29zM333 700h-138l-106 -152h129l46 71l46 -71h129z" />
    <glyph glyph-name="edieresis" unicode="&#xeb;" horiz-adv-x="504" 
d="M476 192l-0.000976562 66c0 36 -4 68.667 -12 98s-20.5 54.5 -37.5 75.5s-38.667 37.333 -65 49s-57.833 17.5 -94.5 17.5c-42 0 -78 -6.66699 -108 -20s-54.833 -31.5 -74.5 -54.5s-34 -50 -43 -81s-13.5 -63.833 -13.5 -98.5c0 -78.667 20.5 -140.667 61.5 -186
s104.167 -68 189.5 -68c37.333 0 72 3.83301 104 11.5s62 18.167 90 31.5l-24 96c-22.667 -10 -46.167 -18.167 -70.5 -24.5s-50.166 -9.5 -77.499 -9.5c-40 0 -70 8 -90 24s-32.667 40.333 -38 73h303zM264.999 401c28 0 48.001 -8.66699 60.001 -26s18 -41 18 -71v-13
h-171c3.33301 34.667 12.166 61.667 26.499 81s36.5 29 66.5 29zM291 623c0 -19.333 6.16699 -35.666 18.5 -48.999s29.833 -20 52.5 -20s40.167 6.66699 52.5 20s18.5 29.666 18.5 48.999s-6.16699 35.666 -18.5 48.999s-29.833 20 -52.5 20s-40.167 -6.66699 -52.5 -20
s-18.5 -29.666 -18.5 -48.999zM95 623c0 -19.333 6.16699 -35.666 18.5 -48.999s29.833 -20 52.5 -20s40.167 6.66699 52.5 20s18.5 29.666 18.5 48.999s-6.16699 35.666 -18.5 48.999s-29.833 20 -52.5 20s-40.167 -6.66699 -52.5 -20s-18.5 -29.666 -18.5 -48.999z" />
    <glyph glyph-name="igrave" unicode="&#xec;" horiz-adv-x="262" 
d="M202 0v488h-142v-488h142zM64 548h139l-50 152h-182z" />
    <glyph glyph-name="iacute" unicode="&#xed;" horiz-adv-x="262" 
d="M202 0v488h-142v-488h142zM65 548h139l93 152h-182z" />
    <glyph glyph-name="icircumflex" unicode="&#xee;" horiz-adv-x="262" 
d="M202 0v488h-142v-488h142zM201 700h-138l-106 -152h129l46 71l46 -71h129z" />
    <glyph glyph-name="idieresis" unicode="&#xef;" horiz-adv-x="262" 
d="M202 0v488h-142v-488h142zM159 623c0 -19.333 6.16699 -35.666 18.5 -48.999s29.833 -20 52.5 -20s40.167 6.66699 52.5 20s18.5 29.666 18.5 48.999s-6.16699 35.666 -18.5 48.999s-29.833 20 -52.5 20s-40.167 -6.66699 -52.5 -20s-18.5 -29.666 -18.5 -48.999z
M-37 623c0 -19.333 6.16699 -35.666 18.5 -48.999s29.833 -20 52.5 -20s40.167 6.66699 52.5 20s18.5 29.666 18.5 48.999s-6.16699 35.666 -18.5 48.999s-29.833 20 -52.5 20s-40.167 -6.66699 -52.5 -20s-18.5 -29.666 -18.5 -48.999z" />
    <glyph glyph-name="eth" unicode="&#xf0;" horiz-adv-x="526" 
d="M237 460l40.998 42c39.333 -27.333 68 -63.333 86 -108c-16.667 15.333 -36 27.5 -58 36.5s-47.667 13.5 -77 13.5c-32.667 0 -61.667 -5.5 -87 -16.5s-46.666 -26.5 -63.999 -46.5s-30.5 -44 -39.5 -72s-13.5 -58.667 -13.5 -92c0 -32 5.33301 -61.667 16 -89
s25.667 -51.333 45 -72s43 -36.834 71 -48.501s59.333 -17.5 94 -17.5c44.667 0 82.834 8.5 114.501 25.5s57.5 38.667 77.5 65s34.667 55.5 44 87.5s14 63.333 14 94c0 70 -11.833 132 -35.5 186s-59.5 99.667 -107.5 137l47 48l-53 49l-56 -58
c-43.333 22.667 -94 40 -152 52l-30 -107c37.333 -9.33301 70 -19.666 98 -30.999l-30 -30zM165.998 217c0 37.333 8 66.333 24 87s40 31 72 31c30 0 53.667 -10 71 -30s26 -49.333 26 -88c0 -36 -9.16699 -64.667 -27.5 -86s-41.5 -32 -69.5 -32c-32 0 -56 10.667 -72 32
s-24 50 -24 86z" />
    <glyph glyph-name="ntilde" unicode="&#xf1;" horiz-adv-x="558" 
d="M503 0v331c0 54 -11.833 95.333 -35.5 124s-63.834 43 -120.501 43c-20.667 0 -39 -2.5 -55 -7.5s-30 -11.667 -42 -20s-22.333 -17.666 -31 -27.999s-15.667 -20.833 -21 -31.5v77h-138v-488h142v268c0 35.333 7.33301 62.166 22 80.499s38.334 27.5 71.001 27.5
c22 0 38.5 -6 49.5 -18s16.5 -28.667 16.5 -50v-308h142zM390 700c-3.33301 -9.33301 -7.49805 -19 -12.498 -29s-14.167 -15 -27.5 -15c-8 0 -17 2.16699 -27 6.5s-20.833 9.33301 -32.5 15s-23.834 10.667 -36.501 15s-25 6.5 -37 6.5
c-33.333 0 -58.666 -9.66699 -75.999 -29s-32.333 -49 -45 -89l89 -33c4.66699 12 9.66699 22.5 15 31.5s14.666 13.5 27.999 13.5c9.33301 0 19.666 -2.33301 30.999 -7l35.5 -15c12.333 -5.33301 24.833 -10.333 37.5 -15s25 -7 37 -7c17.333 0 32.166 3.33301 44.499 10
s22.833 15.5 31.5 26.5s15.834 23.667 21.501 38s10.5 28.833 14.5 43.5z" />
    <glyph glyph-name="ograve" unicode="&#xf2;" horiz-adv-x="532" 
d="M504 244c0 36.667 -5.16602 70.667 -15.499 102s-25.5 58.166 -45.5 80.499s-44.833 39.833 -74.5 52.5s-63.834 19 -102.501 19c-39.333 0 -73.833 -6.33301 -103.5 -19s-54.5 -30.167 -74.5 -52.5s-35 -49.166 -45 -80.499s-15 -65.333 -15 -102
c0 -37.333 5 -71.5 15 -102.5s25 -57.667 45 -80s44.833 -39.833 74.5 -52.5s64.167 -19 103.5 -19s73.833 6.33301 103.5 19s54.5 30.167 74.5 52.5s35 49 45 80s15 65.167 15 102.5zM362.001 244c0 -46 -7.5 -81 -22.5 -105s-39.5 -36 -73.5 -36s-58.5 12 -73.5 36
s-22.5 59 -22.5 105s7.5 81 22.5 105s39.5 36 73.5 36s58.5 -12 73.5 -36s22.5 -59 22.5 -105zM198.001 548h139l-50 152h-182z" />
    <glyph glyph-name="oacute" unicode="&#xf3;" horiz-adv-x="532" 
d="M504 244c0 36.667 -5.16602 70.667 -15.499 102s-25.5 58.166 -45.5 80.499s-44.833 39.833 -74.5 52.5s-63.834 19 -102.501 19c-39.333 0 -73.833 -6.33301 -103.5 -19s-54.5 -30.167 -74.5 -52.5s-35 -49.166 -45 -80.499s-15 -65.333 -15 -102
c0 -37.333 5 -71.5 15 -102.5s25 -57.667 45 -80s44.833 -39.833 74.5 -52.5s64.167 -19 103.5 -19s73.833 6.33301 103.5 19s54.5 30.167 74.5 52.5s35 49 45 80s15 65.167 15 102.5zM362.001 244c0 -46 -7.5 -81 -22.5 -105s-39.5 -36 -73.5 -36s-58.5 12 -73.5 36
s-22.5 59 -22.5 105s7.5 81 22.5 105s39.5 36 73.5 36s58.5 -12 73.5 -36s22.5 -59 22.5 -105zM195.001 548h139l93 152h-182z" />
    <glyph glyph-name="ocircumflex" unicode="&#xf4;" horiz-adv-x="532" 
d="M504 244c0 36.667 -5.16602 70.667 -15.499 102s-25.5 58.166 -45.5 80.499s-44.833 39.833 -74.5 52.5s-63.834 19 -102.501 19c-39.333 0 -73.833 -6.33301 -103.5 -19s-54.5 -30.167 -74.5 -52.5s-35 -49.166 -45 -80.499s-15 -65.333 -15 -102
c0 -37.333 5 -71.5 15 -102.5s25 -57.667 45 -80s44.833 -39.833 74.5 -52.5s64.167 -19 103.5 -19s73.833 6.33301 103.5 19s54.5 30.167 74.5 52.5s35 49 45 80s15 65.167 15 102.5zM362.001 244c0 -46 -7.5 -81 -22.5 -105s-39.5 -36 -73.5 -36s-58.5 12 -73.5 36
s-22.5 59 -22.5 105s7.5 81 22.5 105s39.5 36 73.5 36s58.5 -12 73.5 -36s22.5 -59 22.5 -105zM335.001 700h-138l-106 -152h129l46 71l46 -71h129z" />
    <glyph glyph-name="otilde" unicode="&#xf5;" horiz-adv-x="532" 
d="M504 244c0 36.667 -5.16602 70.667 -15.499 102s-25.5 58.166 -45.5 80.499s-44.833 39.833 -74.5 52.5s-63.834 19 -102.501 19c-39.333 0 -73.833 -6.33301 -103.5 -19s-54.5 -30.167 -74.5 -52.5s-35 -49.166 -45 -80.499s-15 -65.333 -15 -102
c0 -37.333 5 -71.5 15 -102.5s25 -57.667 45 -80s44.833 -39.833 74.5 -52.5s64.167 -19 103.5 -19s73.833 6.33301 103.5 19s54.5 30.167 74.5 52.5s35 49 45 80s15 65.167 15 102.5zM362.001 244c0 -46 -7.5 -81 -22.5 -105s-39.5 -36 -73.5 -36s-58.5 12 -73.5 36
s-22.5 59 -22.5 105s7.5 81 22.5 105s39.5 36 73.5 36s58.5 -12 73.5 -36s22.5 -59 22.5 -105zM372.001 700c-3.33301 -9.33301 -7.49805 -19 -12.498 -29s-14.167 -15 -27.5 -15c-8 0 -17 2.16699 -27 6.5s-20.833 9.33301 -32.5 15s-23.834 10.667 -36.501 15
s-25 6.5 -37 6.5c-33.333 0 -58.666 -9.66699 -75.999 -29s-32.333 -49 -45 -89l89 -33c4.66699 12 9.66699 22.5 15 31.5s14.666 13.5 27.999 13.5c9.33301 0 19.666 -2.33301 30.999 -7l35.5 -15c12.333 -5.33301 24.833 -10.333 37.5 -15s25 -7 37 -7
c17.333 0 32.166 3.33301 44.499 10s22.833 15.5 31.5 26.5s15.834 23.667 21.501 38s10.5 28.833 14.5 43.5z" />
    <glyph glyph-name="odieresis" unicode="&#xf6;" horiz-adv-x="532" 
d="M504 244c0 36.667 -5.16602 70.667 -15.499 102s-25.5 58.166 -45.5 80.499s-44.833 39.833 -74.5 52.5s-63.834 19 -102.501 19c-39.333 0 -73.833 -6.33301 -103.5 -19s-54.5 -30.167 -74.5 -52.5s-35 -49.166 -45 -80.499s-15 -65.333 -15 -102
c0 -37.333 5 -71.5 15 -102.5s25 -57.667 45 -80s44.833 -39.833 74.5 -52.5s64.167 -19 103.5 -19s73.833 6.33301 103.5 19s54.5 30.167 74.5 52.5s35 49 45 80s15 65.167 15 102.5zM362.001 244c0 -46 -7.5 -81 -22.5 -105s-39.5 -36 -73.5 -36s-58.5 12 -73.5 36
s-22.5 59 -22.5 105s7.5 81 22.5 105s39.5 36 73.5 36s58.5 -12 73.5 -36s22.5 -59 22.5 -105zM293.001 623c0 -19.333 6.16699 -35.666 18.5 -48.999s29.833 -20 52.5 -20s40.167 6.66699 52.5 20s18.5 29.666 18.5 48.999s-6.16699 35.666 -18.5 48.999
s-29.833 20 -52.5 20s-40.167 -6.66699 -52.5 -20s-18.5 -29.666 -18.5 -48.999zM97.001 623c0 -19.333 6.16699 -35.666 18.5 -48.999s29.833 -20 52.5 -20s40.167 6.66699 52.5 20s18.5 29.666 18.5 48.999s-6.16699 35.666 -18.5 48.999s-29.833 20 -52.5 20
s-40.167 -6.66699 -52.5 -20s-18.5 -29.666 -18.5 -48.999z" />
    <glyph glyph-name="divide" unicode="&#xf7;" horiz-adv-x="544" 
d="M351 522c0 23.333 -7.66699 41.833 -23 55.5s-34 20.5 -56 20.5s-40.667 -6.83301 -56 -20.5s-23 -32.167 -23 -55.5s7.66699 -41.833 23 -55.5s34 -20.5 56 -20.5s40.667 6.83301 56 20.5s23 32.167 23 55.5zM499 264v118h-454v-118h454zM351 124
c0 23.333 -7.66699 41.833 -23 55.5s-34 20.5 -56 20.5s-40.667 -6.83301 -56 -20.5s-23 -32.167 -23 -55.5s7.66699 -41.833 23 -55.5s34 -20.5 56 -20.5s40.667 6.83301 56 20.5s23 32.167 23 55.5z" />
    <glyph glyph-name="oslash" unicode="&#xf8;" horiz-adv-x="526" 
d="M501 244c0 50.667 -9.33203 95.3311 -27.999 133.998s-46.667 68.334 -84 89.001l43 105h-70l-33 -81c-10.667 2 -21.334 3.66699 -32.001 5s-22 2 -34 2c-39.333 0 -73.833 -6.33301 -103.5 -19s-54.5 -30.167 -74.5 -52.5s-35 -49.166 -45 -80.499
s-15 -65.333 -15 -102c0 -50.667 9.33301 -95.5 28 -134.5s46.667 -68.833 84 -89.5l-42 -104h70l33 81c10 -2 20.333 -3.66699 31 -5s22 -2 34 -2c39.333 0 73.833 6.33301 103.5 19s54.5 30.167 74.5 52.5s35 49 45 80s15 65.167 15 102.5zM167.001 243.997
c0 46 7.5 81 22.5 105s39.5 36 73.5 36c4 0 7.83301 -0.166992 11.5 -0.5s7.16699 -0.833008 10.5 -1.5l-98 -241c-13.333 22.667 -20 56.667 -20 102zM359.001 243.997c0 -46 -7.50098 -81 -22.501 -105s-39.5 -36 -73.5 -36c-4 0 -7.66699 0.166992 -11 0.5
s-6.66602 0.833008 -9.99902 1.5l97 239c13.333 -22 20 -55.333 20 -100z" />
    <glyph glyph-name="ugrave" unicode="&#xf9;" horiz-adv-x="553" 
d="M55 488v-330.999c0 -52.667 12 -93.667 36 -123s63.333 -44 118 -44c20 0 37.667 2.5 53 7.5s29 11.667 41 20s22.333 17.666 31 27.999s15.667 20.833 21 31.5v-77h138v488h-142v-268c0 -34 -6.83301 -60.5 -20.5 -79.5s-36.167 -28.5 -67.5 -28.5
c-22 0 -38.5 6 -49.5 18s-16.5 28.667 -16.5 50v308h-142zM228 548.001h139l-50 152h-182z" />
    <glyph glyph-name="uacute" unicode="&#xfa;" horiz-adv-x="553" 
d="M55 488v-330.999c0 -52.667 12 -93.667 36 -123s63.333 -44 118 -44c20 0 37.667 2.5 53 7.5s29 11.667 41 20s22.333 17.666 31 27.999s15.667 20.833 21 31.5v-77h138v488h-142v-268c0 -34 -6.83301 -60.5 -20.5 -79.5s-36.167 -28.5 -67.5 -28.5
c-22 0 -38.5 6 -49.5 18s-16.5 28.667 -16.5 50v308h-142zM195 548.001h139l93 152h-182z" />
    <glyph glyph-name="ucircumflex" unicode="&#xfb;" horiz-adv-x="553" 
d="M55 488v-330.999c0 -52.667 12 -93.667 36 -123s63.333 -44 118 -44c20 0 37.667 2.5 53 7.5s29 11.667 41 20s22.333 17.666 31 27.999s15.667 20.833 21 31.5v-77h138v488h-142v-268c0 -34 -6.83301 -60.5 -20.5 -79.5s-36.167 -28.5 -67.5 -28.5
c-22 0 -38.5 6 -49.5 18s-16.5 28.667 -16.5 50v308h-142zM343 700.001h-138l-106 -152h129l46 71l46 -71h129z" />
    <glyph glyph-name="udieresis" unicode="&#xfc;" horiz-adv-x="553" 
d="M55 488v-330.999c0 -52.667 12 -93.667 36 -123s63.333 -44 118 -44c20 0 37.667 2.5 53 7.5s29 11.667 41 20s22.333 17.666 31 27.999s15.667 20.833 21 31.5v-77h138v488h-142v-268c0 -34 -6.83301 -60.5 -20.5 -79.5s-36.167 -28.5 -67.5 -28.5
c-22 0 -38.5 6 -49.5 18s-16.5 28.667 -16.5 50v308h-142zM304 623.001c0 -19.333 6.16699 -35.666 18.5 -48.999s29.833 -20 52.5 -20s40.167 6.66699 52.5 20s18.5 29.666 18.5 48.999s-6.16699 35.666 -18.5 48.999s-29.833 20 -52.5 20s-40.167 -6.66699 -52.5 -20
s-18.5 -29.666 -18.5 -48.999zM108 623.001c0 -19.333 6.16699 -35.666 18.5 -48.999s29.833 -20 52.5 -20s40.167 6.66699 52.5 20s18.5 29.666 18.5 48.999s-6.16699 35.666 -18.5 48.999s-29.833 20 -52.5 20s-40.167 -6.66699 -52.5 -20s-18.5 -29.666 -18.5 -48.999z
" />
    <glyph glyph-name="yacute" unicode="&#xfd;" horiz-adv-x="458" 
d="M232 151l-89 337h-149l167 -492l-53 -174h144l212 666h-149zM164 548h139l93 152h-182z" />
    <glyph glyph-name="thorn" unicode="&#xfe;" 
d="M536 244c0 36 -3.66309 69.499 -10.9961 100.499s-18.833 57.833 -34.5 80.5s-35.334 40.5 -59.001 53.5s-51.834 19.5 -84.501 19.5c-36 0 -65.5 -7.5 -88.5 -22.5s-41.833 -33.833 -56.5 -56.5v247h-142v-844h142v249c11.333 -21.333 29.166 -40.166 53.499 -56.499
s54.166 -24.5 89.499 -24.5c33.333 0 62 6.5 86 19.5s43.833 30.833 59.5 53.5s27.167 49.5 34.5 80.5s11 64.5 11 100.5zM395.004 243.999c0 -44 -7 -78.5 -21 -103.5s-38 -37.5 -72 -37.5c-35.333 0 -60.833 12.5 -76.5 37.5s-23.5 59.5 -23.5 103.5
s7.83301 78.5 23.5 103.5s41.167 37.5 76.5 37.5c34 0 58 -12.5 72 -37.5s21 -59.5 21 -103.5z" />
    <glyph glyph-name="ydieresis" unicode="&#xff;" horiz-adv-x="458" 
d="M232 151l-89 337h-149l167 -492l-53 -174h144l212 666h-149zM264 623c0 -19.333 6.16699 -35.666 18.5 -48.999s29.833 -20 52.5 -20s40.167 6.66699 52.5 20s18.5 29.666 18.5 48.999s-6.16699 35.666 -18.5 48.999s-29.833 20 -52.5 20s-40.167 -6.66699 -52.5 -20
s-18.5 -29.666 -18.5 -48.999zM68 623c0 -19.333 6.16699 -35.666 18.5 -48.999s29.833 -20 52.5 -20s40.167 6.66699 52.5 20s18.5 29.666 18.5 48.999s-6.16699 35.666 -18.5 48.999s-29.833 20 -52.5 20s-40.167 -6.66699 -52.5 -20s-18.5 -29.666 -18.5 -48.999z" />
    <glyph glyph-name="Amacron" unicode="&#x100;" horiz-adv-x="656" 
d="M5 0h148l48 147h254l48 -147h148l-242 666h-162zM328 535l87 -266h-174zM504 733v110h-352v-110h352z" />
    <glyph glyph-name="amacron" unicode="&#x101;" horiz-adv-x="539" 
d="M486 0l-0.00195312 321.998c0 60.667 -18 105.167 -54 133.5s-89.333 42.5 -160 42.5c-36.667 0 -72 -4.16699 -106 -12.5s-64.667 -19.5 -92 -33.5l24 -110c22 10.667 45.333 19.334 70 26.001s53 10 85 10c60.667 0 91 -20.667 91 -62v-23h-129
c-25.333 0 -48.666 -2.66699 -69.999 -8s-39.666 -14.166 -54.999 -26.499s-27.5 -28.5 -36.5 -48.5s-13.5 -44.333 -13.5 -73c0 -46 13.333 -82 40 -108s64 -39 112 -39c34 0 65 6.33301 93 19s50 29.667 66 51v-60h135zM343.998 170.998
c0 -26.667 -9.16699 -47.167 -27.5 -61.5s-42.5 -21.5 -72.5 -21.5c-42.667 0 -64 18 -64 54c0 35.333 20.333 53 61 53h103v-24zM436.998 561.998v108h-312v-108h312z" />
    <glyph glyph-name="Abreve" unicode="&#x102;" horiz-adv-x="656" 
d="M5 0h148l48 147h254l48 -147h148l-242 666h-162zM328 535l87 -266h-174zM390 858c0 -16 -5 -28.5 -15 -37.5s-25.667 -13.5 -47 -13.5s-37 4.5 -47 13.5s-15 21.5 -15 37.5h-111c0 -44.667 15.833 -77.834 47.5 -99.501s73.5 -32.5 125.5 -32.5s93.833 10.833 125.5 32.5
s47.5 54.834 47.5 99.501h-111z" />
    <glyph glyph-name="abreve" unicode="&#x103;" horiz-adv-x="539" 
d="M486 0l-0.00195312 321.998c0 60.667 -18 105.167 -54 133.5s-89.333 42.5 -160 42.5c-36.667 0 -72 -4.16699 -106 -12.5s-64.667 -19.5 -92 -33.5l24 -110c22 10.667 45.333 19.334 70 26.001s53 10 85 10c60.667 0 91 -20.667 91 -62v-23h-129
c-25.333 0 -48.666 -2.66699 -69.999 -8s-39.666 -14.166 -54.999 -26.499s-27.5 -28.5 -36.5 -48.5s-13.5 -44.333 -13.5 -73c0 -46 13.333 -82 40 -108s64 -39 112 -39c34 0 65 6.33301 93 19s50 29.667 66 51v-60h135zM343.998 170.998
c0 -26.667 -9.16699 -47.167 -27.5 -61.5s-42.5 -21.5 -72.5 -21.5c-42.667 0 -64 18 -64 54c0 35.333 20.333 53 61 53h103v-24zM445.998 694.998h-102.002c0 -20 -5.5 -35.667 -16.5 -47s-27.167 -17 -48.5 -17s-37.5 5.66699 -48.5 17s-16.5 27 -16.5 47h-102
c0 -24 4.16699 -45 12.5 -63s19.833 -33.333 34.5 -46s32.334 -22.167 53.001 -28.5s43 -9.5 67 -9.5s46.333 3.16699 67 9.5s38.334 15.833 53.001 28.5s26.167 28 34.5 46s12.5 39 12.5 63z" />
    <glyph glyph-name="Aogonek" unicode="&#x104;" horiz-adv-x="656" 
d="M409 666l-161.999 -0.000976562l-242 -666h148l48 147h254l48 -147c-12 -10 -22.833 -22.5 -32.5 -37.5s-14.5 -33.167 -14.5 -54.5c0 -28 8.33301 -51 25 -69s43 -27 79 -27c18 0 35.167 1.5 51.5 4.5s29.166 6.83301 38.499 11.5l-11 68
c-4 -1.33301 -8.83301 -2.5 -14.5 -3.5s-11.5 -1.5 -17.5 -1.5c-24 0 -36 10 -36 30c0 9.33301 2.66699 17.833 8 25.5s12 14.834 20 21.501s16.667 12.667 26 18s18 10 26 14zM328.001 534.999l87 -266h-174z" />
    <glyph glyph-name="aogonek" unicode="&#x105;" horiz-adv-x="539" 
d="M475 -104c-4 -1.33301 -8.83398 -2.50293 -14.501 -3.50293s-11.5 -1.5 -17.5 -1.5c-24 0 -36 10 -36 30c0 9.33301 2.66699 18 8 26s12 15.333 20 22s16.667 12.5 26 17.5l25 13.5v322c0 60.667 -18 105.167 -54 133.5s-89.333 42.5 -160 42.5
c-36.667 0 -72 -4.16699 -106 -12.5s-64.667 -19.5 -92 -33.5l24 -110c22 10.667 45.333 19.334 70 26.001s53 10 85 10c60.667 0 91 -20.667 91 -62v-23h-129c-25.333 0 -48.666 -2.66699 -69.999 -8s-39.666 -14.166 -54.999 -26.499s-27.5 -28.5 -36.5 -48.5
s-13.5 -44.333 -13.5 -73c0 -46 13.333 -82 40 -108s64 -39 112 -39c34 0 65 6.33301 93 19s50 29.667 66 51v-60c-15.333 -10.667 -29 -24.167 -41 -40.5s-18 -36.5 -18 -60.5c0 -25.333 8.33301 -46.166 25 -62.499s43 -24.5 79 -24.5c18 0 35.167 1.5 51.5 4.5
s29.166 6.83301 38.499 11.5zM343.999 170.997c0 -26.667 -9.16699 -47.167 -27.5 -61.5s-42.5 -21.5 -72.5 -21.5c-42.667 0 -64 18 -64 54c0 35.333 20.333 53 61 53h103v-24z" />
    <glyph glyph-name="Cacute" unicode="&#x106;" horiz-adv-x="585" 
d="M30 333c0 -54 8 -102.502 24 -145.502s38.5 -79.167 67.5 -108.5s64 -51.833 105 -67.5s86.167 -23.5 135.5 -23.5c44 0 82.5 4 115.5 12s59.167 17 78.5 27l-22 115c-19.333 -8 -41.833 -14.667 -67.5 -20s-49.834 -8 -72.501 -8c-71.333 0 -125.5 17.833 -162.5 53.5
s-55.5 90.834 -55.5 165.501s18.5 129.834 55.5 165.501s91.167 53.5 162.5 53.5c22.667 0 46.834 -2.66699 72.501 -8s48.167 -12 67.5 -20l22 115c-19.333 10 -45.5 19 -78.5 27s-71.5 12 -115.5 12c-49.333 0 -94.5 -7.83301 -135.5 -23.5s-76 -38.167 -105 -67.5
s-51.5 -65.5 -67.5 -108.5s-24 -91.5 -24 -145.5zM539 857.998h-194l-74 -132h141z" />
    <glyph glyph-name="cacute" unicode="&#x107;" horiz-adv-x="454" 
d="M428 464c-17.333 10.667 -40 18.998 -68 24.998s-57 9 -87 9c-41.333 0 -77.333 -6.16699 -108 -18.5s-56.167 -29.5 -76.5 -51.5s-35.5 -48.667 -45.5 -80s-15 -66 -15 -104s5 -72.667 15 -104s25.167 -58 45.5 -80s45.833 -39.167 76.5 -51.5s66.667 -18.5 108 -18.5
c30 0 59 3 87 9s50.667 14.333 68 25l-21 104c-15.333 -7.33301 -32.166 -13.333 -50.499 -18s-38.166 -7 -59.499 -7c-24 0 -44.167 3.33301 -60.5 10s-29.333 16.334 -39 29.001s-16.667 27.5 -21 44.5s-6.5 36.167 -6.5 57.5c0 20.667 2.16699 39.667 6.5 57
s11.333 32.333 21 45s22.667 22.334 39 29.001s36.5 10 60.5 10c21.333 0 41.166 -2.33301 59.499 -7s35.166 -10.667 50.499 -18zM189 547.998h139l93 152h-182z" />
    <glyph glyph-name="Ccircumflex" unicode="&#x108;" horiz-adv-x="585" 
d="M30 333c0 -54 8 -102.502 24 -145.502s38.5 -79.167 67.5 -108.5s64 -51.833 105 -67.5s86.167 -23.5 135.5 -23.5c44 0 82.5 4 115.5 12s59.167 17 78.5 27l-22 115c-19.333 -8 -41.833 -14.667 -67.5 -20s-49.834 -8 -72.501 -8c-71.333 0 -125.5 17.833 -162.5 53.5
s-55.5 90.834 -55.5 165.501s18.5 129.834 55.5 165.501s91.167 53.5 162.5 53.5c22.667 0 46.834 -2.66699 72.501 -8s48.167 -12 67.5 -20l22 115c-19.333 10 -45.5 19 -78.5 27s-71.5 12 -115.5 12c-49.333 0 -94.5 -7.83301 -135.5 -23.5s-76 -38.167 -105 -67.5
s-51.5 -65.5 -67.5 -108.5s-24 -91.5 -24 -145.5zM424 857.998h-134l-116 -132h135l48 56l49 -56h135z" />
    <glyph glyph-name="ccircumflex" unicode="&#x109;" horiz-adv-x="454" 
d="M428 464c-17.333 10.667 -40 18.998 -68 24.998s-57 9 -87 9c-41.333 0 -77.333 -6.16699 -108 -18.5s-56.167 -29.5 -76.5 -51.5s-35.5 -48.667 -45.5 -80s-15 -66 -15 -104s5 -72.667 15 -104s25.167 -58 45.5 -80s45.833 -39.167 76.5 -51.5s66.667 -18.5 108 -18.5
c30 0 59 3 87 9s50.667 14.333 68 25l-21 104c-15.333 -7.33301 -32.166 -13.333 -50.499 -18s-38.166 -7 -59.499 -7c-24 0 -44.167 3.33301 -60.5 10s-29.333 16.334 -39 29.001s-16.667 27.5 -21 44.5s-6.5 36.167 -6.5 57.5c0 20.667 2.16699 39.667 6.5 57
s11.333 32.333 21 45s22.667 22.334 39 29.001s36.5 10 60.5 10c21.333 0 41.166 -2.33301 59.499 -7s35.166 -10.667 50.499 -18zM335 699.998h-138l-106 -152h129l46 71l46 -71h129z" />
    <glyph glyph-name="Cdotaccent" unicode="&#x10a;" horiz-adv-x="585" 
d="M30 333c0 -54 8 -102.502 24 -145.502s38.5 -79.167 67.5 -108.5s64 -51.833 105 -67.5s86.167 -23.5 135.5 -23.5c44 0 82.5 4 115.5 12s59.167 17 78.5 27l-22 115c-19.333 -8 -41.833 -14.667 -67.5 -20s-49.834 -8 -72.501 -8c-71.333 0 -125.5 17.833 -162.5 53.5
s-55.5 90.834 -55.5 165.501s18.5 129.834 55.5 165.501s91.167 53.5 162.5 53.5c22.667 0 46.834 -2.66699 72.501 -8s48.167 -12 67.5 -20l22 115c-19.333 10 -45.5 19 -78.5 27s-71.5 12 -115.5 12c-49.333 0 -94.5 -7.83301 -135.5 -23.5s-76 -38.167 -105 -67.5
s-51.5 -65.5 -67.5 -108.5s-24 -91.5 -24 -145.5zM272 809.998c0 -22.667 7.66699 -42.334 23 -59.001s35.666 -25 60.999 -25s45.666 8.33301 60.999 25s23 36.334 23 59.001c0 23.333 -7.66699 43.166 -23 59.499s-35.666 24.5 -60.999 24.5
s-45.666 -8.16699 -60.999 -24.5s-23 -36.166 -23 -59.499z" />
    <glyph glyph-name="cdotaccent" unicode="&#x10b;" horiz-adv-x="454" 
d="M428 464c-17.333 10.667 -40 18.998 -68 24.998s-57 9 -87 9c-41.333 0 -77.333 -6.16699 -108 -18.5s-56.167 -29.5 -76.5 -51.5s-35.5 -48.667 -45.5 -80s-15 -66 -15 -104s5 -72.667 15 -104s25.167 -58 45.5 -80s45.833 -39.167 76.5 -51.5s66.667 -18.5 108 -18.5
c30 0 59 3 87 9s50.667 14.333 68 25l-21 104c-15.333 -7.33301 -32.166 -13.333 -50.499 -18s-38.166 -7 -59.499 -7c-24 0 -44.167 3.33301 -60.5 10s-29.333 16.334 -39 29.001s-16.667 27.5 -21 44.5s-6.5 36.167 -6.5 57.5c0 20.667 2.16699 39.667 6.5 57
s11.333 32.333 21 45s22.667 22.334 39 29.001s36.5 10 60.5 10c21.333 0 41.166 -2.33301 59.499 -7s35.166 -10.667 50.499 -18zM179 631.998c0 -22.667 7.66699 -42.334 23 -59.001s35.666 -25 60.999 -25s45.666 8.33301 60.999 25s23 36.334 23 59.001
c0 23.333 -7.66699 43.166 -23 59.499s-35.666 24.5 -60.999 24.5s-45.666 -8.16699 -60.999 -24.5s-23 -36.166 -23 -59.499z" />
    <glyph glyph-name="Ccaron" unicode="&#x10c;" horiz-adv-x="585" 
d="M30 333c0 -54 8 -102.502 24 -145.502s38.5 -79.167 67.5 -108.5s64 -51.833 105 -67.5s86.167 -23.5 135.5 -23.5c44 0 82.5 4 115.5 12s59.167 17 78.5 27l-22 115c-19.333 -8 -41.833 -14.667 -67.5 -20s-49.834 -8 -72.501 -8c-71.333 0 -125.5 17.833 -162.5 53.5
s-55.5 90.834 -55.5 165.501s18.5 129.834 55.5 165.501s91.167 53.5 162.5 53.5c22.667 0 46.834 -2.66699 72.501 -8s48.167 -12 67.5 -20l22 115c-19.333 10 -45.5 19 -78.5 27s-71.5 12 -115.5 12c-49.333 0 -94.5 -7.83301 -135.5 -23.5s-76 -38.167 -105 -67.5
s-51.5 -65.5 -67.5 -108.5s-24 -91.5 -24 -145.5zM542 857.998h-135l-49 -56l-48 56h-135l116 -132h134z" />
    <glyph glyph-name="ccaron" unicode="&#x10d;" horiz-adv-x="454" 
d="M428 464c-17.333 10.667 -40 18.998 -68 24.998s-57 9 -87 9c-41.333 0 -77.333 -6.16699 -108 -18.5s-56.167 -29.5 -76.5 -51.5s-35.5 -48.667 -45.5 -80s-15 -66 -15 -104s5 -72.667 15 -104s25.167 -58 45.5 -80s45.833 -39.167 76.5 -51.5s66.667 -18.5 108 -18.5
c30 0 59 3 87 9s50.667 14.333 68 25l-21 104c-15.333 -7.33301 -32.166 -13.333 -50.499 -18s-38.166 -7 -59.499 -7c-24 0 -44.167 3.33301 -60.5 10s-29.333 16.334 -39 29.001s-16.667 27.5 -21 44.5s-6.5 36.167 -6.5 57.5c0 20.667 2.16699 39.667 6.5 57
s11.333 32.333 21 45s22.667 22.334 39 29.001s36.5 10 60.5 10c21.333 0 41.166 -2.33301 59.499 -7s35.166 -10.667 50.499 -18zM442 699.998h-129l-46 -71l-46 71h-129l106 -152h138z" />
    <glyph glyph-name="Dcaron" unicode="&#x10e;" horiz-adv-x="685" 
d="M68 0h256c50.667 0 96.5 8 137.5 24s76 38.667 105 68s51.333 64.333 67 105s23.5 86 23.5 136s-7.83301 95.333 -23.5 136s-38 75.667 -67 105s-64 52 -105 68s-86.833 24 -137.5 24h-256v-666zM214 124v418h103c26.667 0 51.834 -4.16699 75.501 -12.5
s44.334 -21 62.001 -38s31.5 -38.667 41.5 -65s15 -57.5 15 -93.5s-5 -67.167 -15 -93.5s-23.833 -48 -41.5 -65s-38.334 -29.667 -62.001 -38s-48.834 -12.5 -75.501 -12.5h-103zM494 858h-135l-49 -56l-48 56h-135l116 -132h134z" />
    <glyph glyph-name="dcaron" unicode="&#x10f;" horiz-adv-x="760" 
d="M28 244c0 -36 3.66016 -69.498 10.9932 -100.498s18.833 -57.833 34.5 -80.5s35.334 -40.5 59.001 -53.5s51.834 -19.5 84.501 -19.5c38 0 69.167 7.66699 93.5 23s42.833 34.666 55.5 57.999v-71h138v666h-142v-249c-13.333 23.333 -31.166 42.666 -53.499 57.999
s-52.166 23 -89.499 23c-33.333 0 -62.166 -6.5 -86.499 -19.5s-44.166 -30.833 -59.499 -53.5s-26.666 -49.5 -33.999 -80.5s-11 -64.5 -11 -100.5zM168.993 244.002c0 44 7 78.5 21 103.5s38 37.5 72 37.5c35.333 0 60.833 -12.5 76.5 -37.5s23.5 -59.5 23.5 -103.5
s-7.83301 -78.5 -23.5 -103.5s-41.167 -37.5 -76.5 -37.5c-34 0 -58 12.5 -72 37.5s-21 59.5 -21 103.5zM769.993 666.002h-166l-34 -229h110z" />
    <glyph glyph-name="Dcroat" unicode="&#x110;" horiz-adv-x="696" 
d="M18 271h61v-271h256c50.667 0 96.5 8 137.5 24s76 38.667 105 68s51.333 64.333 67 105s23.5 86 23.5 136s-7.83301 95.333 -23.5 136s-38 75.667 -67 105s-64 52 -105 68s-86.833 24 -137.5 24h-256v-271h-61v-124zM522 333c0 -36 -5 -67.167 -15 -93.5
s-23.833 -48 -41.5 -65s-38.334 -29.667 -62.001 -38s-48.834 -12.5 -75.501 -12.5h-103v147h170v124h-170v147h103c26.667 0 51.834 -4.16699 75.501 -12.5s44.334 -21 62.001 -38s31.5 -38.667 41.5 -65s15 -57.5 15 -93.5z" />
    <glyph glyph-name="dcroat" unicode="&#x111;" horiz-adv-x="574" 
d="M28 244c0 -36 3.66016 -69.498 10.9932 -100.498s18.833 -57.833 34.5 -80.5s35.334 -40.5 59.001 -53.5s51.834 -19.5 84.501 -19.5c38 0 69.167 7.66699 93.5 23s42.833 34.666 55.5 57.999v-71h138v525h58v87h-58v54h-142v-54h-86v-87h86v-108
c-13.333 23.333 -31.166 42.666 -53.499 57.999s-52.166 23 -89.499 23c-33.333 0 -62.166 -6.5 -86.499 -19.5s-44.166 -30.833 -59.499 -53.5s-26.666 -49.5 -33.999 -80.5s-11 -64.5 -11 -100.5zM168.993 244.002c0 44 7 78.5 21 103.5s38 37.5 72 37.5
c35.333 0 60.833 -12.5 76.5 -37.5s23.5 -59.5 23.5 -103.5s-7.83301 -78.5 -23.5 -103.5s-41.167 -37.5 -76.5 -37.5c-34 0 -58 12.5 -72 37.5s-21 59.5 -21 103.5z" />
    <glyph glyph-name="Emacron" unicode="&#x112;" horiz-adv-x="568" 
d="M65 0h458v126h-312v152h292v126h-292v136h312v126h-458v-666zM475 733v110h-352v-110h352z" />
    <glyph glyph-name="emacron" unicode="&#x113;" horiz-adv-x="504" 
d="M476 192l-0.000976562 66c0 36 -4 68.667 -12 98s-20.5 54.5 -37.5 75.5s-38.667 37.333 -65 49s-57.833 17.5 -94.5 17.5c-42 0 -78 -6.66699 -108 -20s-54.833 -31.5 -74.5 -54.5s-34 -50 -43 -81s-13.5 -63.833 -13.5 -98.5c0 -78.667 20.5 -140.667 61.5 -186
s104.167 -68 189.5 -68c37.333 0 72 3.83301 104 11.5s62 18.167 90 31.5l-24 96c-22.667 -10 -46.167 -18.167 -70.5 -24.5s-50.166 -9.5 -77.499 -9.5c-40 0 -70 8 -90 24s-32.667 40.333 -38 73h303zM264.999 401c28 0 48.001 -8.66699 60.001 -26s18 -41 18 -71v-13
h-171c3.33301 34.667 12.166 61.667 26.499 81s36.5 29 66.5 29zM420 562v108h-312v-108h312z" />
    <glyph glyph-name="Ebreve" unicode="&#x114;" horiz-adv-x="568" 
d="M65 0h458v126h-312v152h292v126h-292v136h312v126h-458v-666zM366 858c0 -16 -5 -28.5 -15 -37.5s-25.667 -13.5 -47 -13.5s-37 4.5 -47 13.5s-15 21.5 -15 37.5h-111c0 -44.667 15.833 -77.834 47.5 -99.501s73.5 -32.5 125.5 -32.5s93.833 10.833 125.5 32.5
s47.5 54.834 47.5 99.501h-111z" />
    <glyph glyph-name="ebreve" unicode="&#x115;" horiz-adv-x="504" 
d="M476 192l-0.000976562 66c0 36 -4 68.667 -12 98s-20.5 54.5 -37.5 75.5s-38.667 37.333 -65 49s-57.833 17.5 -94.5 17.5c-42 0 -78 -6.66699 -108 -20s-54.833 -31.5 -74.5 -54.5s-34 -50 -43 -81s-13.5 -63.833 -13.5 -98.5c0 -78.667 20.5 -140.667 61.5 -186
s104.167 -68 189.5 -68c37.333 0 72 3.83301 104 11.5s62 18.167 90 31.5l-24 96c-22.667 -10 -46.167 -18.167 -70.5 -24.5s-50.166 -9.5 -77.499 -9.5c-40 0 -70 8 -90 24s-32.667 40.333 -38 73h303zM264.999 401c28 0 48.001 -8.66699 60.001 -26s18 -41 18 -71v-13
h-171c3.33301 34.667 12.166 61.667 26.499 81s36.5 29 66.5 29zM431 695h-102.002c0 -20 -5.5 -35.667 -16.5 -47s-27.167 -17 -48.5 -17s-37.5 5.66699 -48.5 17s-16.5 27 -16.5 47h-102c0 -24 4.16699 -45 12.5 -63s19.833 -33.333 34.5 -46s32.334 -22.167 53.001 -28.5
s43 -9.5 67 -9.5s46.333 3.16699 67 9.5s38.334 15.833 53.001 28.5s26.167 28 34.5 46s12.5 39 12.5 63z" />
    <glyph glyph-name="Edotaccent" unicode="&#x116;" horiz-adv-x="568" 
d="M65 0h458v126h-312v152h292v126h-292v136h312v126h-458v-666zM218 810c0 -22.667 7.66699 -42.334 23 -59.001s35.666 -25 60.999 -25s45.666 8.33301 60.999 25s23 36.334 23 59.001c0 23.333 -7.66699 43.166 -23 59.499s-35.666 24.5 -60.999 24.5
s-45.666 -8.16699 -60.999 -24.5s-23 -36.166 -23 -59.499z" />
    <glyph glyph-name="edotaccent" unicode="&#x117;" horiz-adv-x="504" 
d="M476 192l-0.000976562 66c0 36 -4 68.667 -12 98s-20.5 54.5 -37.5 75.5s-38.667 37.333 -65 49s-57.833 17.5 -94.5 17.5c-42 0 -78 -6.66699 -108 -20s-54.833 -31.5 -74.5 -54.5s-34 -50 -43 -81s-13.5 -63.833 -13.5 -98.5c0 -78.667 20.5 -140.667 61.5 -186
s104.167 -68 189.5 -68c37.333 0 72 3.83301 104 11.5s62 18.167 90 31.5l-24 96c-22.667 -10 -46.167 -18.167 -70.5 -24.5s-50.166 -9.5 -77.499 -9.5c-40 0 -70 8 -90 24s-32.667 40.333 -38 73h303zM264.999 401c28 0 48.001 -8.66699 60.001 -26s18 -41 18 -71v-13
h-171c3.33301 34.667 12.166 61.667 26.499 81s36.5 29 66.5 29zM180 632c0 -22.667 7.66699 -42.334 23 -59.001s35.666 -25 60.999 -25s45.666 8.33301 60.999 25s23 36.334 23 59.001c0 23.333 -7.66699 43.166 -23 59.499s-35.666 24.5 -60.999 24.5
s-45.666 -8.16699 -60.999 -24.5s-23 -36.166 -23 -59.499z" />
    <glyph glyph-name="Eogonek" unicode="&#x118;" horiz-adv-x="568" 
d="M65 0l323.001 -0.000976562c-15.333 -10.667 -29 -24.167 -41 -40.5s-18 -36.5 -18 -60.5c0 -25.333 8.33301 -46.166 25 -62.499s43 -24.5 79 -24.5c18 0 35.167 1.5 51.5 4.5s29.166 6.83301 38.499 11.5l-11 68c-4 -1.33301 -8.83301 -2.5 -14.5 -3.5
s-11.5 -1.5 -17.5 -1.5c-24 0 -36 10 -36 30c0 9.33301 2.66699 18 8 26s12 15.333 20 22s16.667 12.5 26 17.5l25 13.5v126h-312v152h292v126h-292v136h312v126h-458v-666z" />
    <glyph glyph-name="eogonek" unicode="&#x119;" horiz-adv-x="504" 
d="M476 192v65.999c0 36 -4 68.667 -12 98s-20.5 54.5 -37.5 75.5s-38.667 37.333 -65 49s-57.833 17.5 -94.5 17.5c-42 0 -78 -6.66699 -108 -20s-54.833 -31.5 -74.5 -54.5s-34 -50 -43 -81s-13.5 -63.833 -13.5 -98.5c0 -78.667 20.5 -140.667 61.5 -186
s104.167 -68 189.5 -68h17.5c6.33301 0 11.166 0.333008 14.499 1c-17.333 -9.33301 -32.333 -21.333 -45 -36s-19 -34.667 -19 -60c0 -23.333 8.33301 -43 25 -59s43 -24 79 -24c18 0 35.167 1.5 51.5 4.5s29.166 6.83301 38.499 11.5l-11 68
c-4 -1.33301 -8.83301 -2.5 -14.5 -3.5s-11.5 -1.5 -17.5 -1.5c-24 0 -36 10 -36 30c0 10 3.33301 20.167 10 30.5s15.334 20.333 26.001 30s22.5 18.834 35.5 27.501s26.167 16.667 39.5 24l-24 96c-22.667 -10 -46.167 -18.167 -70.5 -24.5s-50.166 -9.5 -77.499 -9.5
c-40 0 -70 8 -90 24s-32.667 40.333 -38 73h303zM265 400.999c28 0 48.001 -8.66699 60.001 -26s18 -41 18 -71v-13h-171c3.33301 34.667 12.166 61.667 26.499 81s36.5 29 66.5 29z" />
    <glyph glyph-name="Ecaron" unicode="&#x11a;" horiz-adv-x="568" 
d="M65 0h458v126h-312v152h292v126h-292v136h312v126h-458v-666zM489 858h-135l-49 -56l-48 56h-135l116 -132h134z" />
    <glyph glyph-name="ecaron" unicode="&#x11b;" horiz-adv-x="504" 
d="M476 192l-0.000976562 66c0 36 -4 68.667 -12 98s-20.5 54.5 -37.5 75.5s-38.667 37.333 -65 49s-57.833 17.5 -94.5 17.5c-42 0 -78 -6.66699 -108 -20s-54.833 -31.5 -74.5 -54.5s-34 -50 -43 -81s-13.5 -63.833 -13.5 -98.5c0 -78.667 20.5 -140.667 61.5 -186
s104.167 -68 189.5 -68c37.333 0 72 3.83301 104 11.5s62 18.167 90 31.5l-24 96c-22.667 -10 -46.167 -18.167 -70.5 -24.5s-50.166 -9.5 -77.499 -9.5c-40 0 -70 8 -90 24s-32.667 40.333 -38 73h303zM264.999 401c28 0 48.001 -8.66699 60.001 -26s18 -41 18 -71v-13
h-171c3.33301 34.667 12.166 61.667 26.499 81s36.5 29 66.5 29zM436 700h-129l-46 -71l-46 71h-129l106 -152h138z" />
    <glyph glyph-name="Gcircumflex" unicode="&#x11c;" horiz-adv-x="664" 
d="M30 328c0 -47.333 6.99707 -91.502 20.9971 -132.502s35.667 -77 65 -108s66.5 -55.333 111.5 -73s98.167 -26.5 159.5 -26.5c20.667 0 41.667 1 63 3s42 4.5 62 7.5s38.333 6.5 55 10.5s30.667 8 42 12v293h-138v-200c-13.333 -2 -26.666 -3.66699 -39.999 -5
s-27.666 -2 -42.999 -2c-70 0 -122.833 18.333 -158.5 55s-53.5 91.667 -53.5 165c0 72 18.333 127.833 55 167.5s94 59.5 172 59.5c34 0 66.167 -3.33301 96.5 -10s59.5 -15 87.5 -25l21 117c-34 14.667 -68.333 25.334 -103 32.001s-73 10 -115 10
c-58.667 0 -110.5 -8.33301 -155.5 -25s-82.667 -40.167 -113 -70.5s-53.166 -67.166 -68.499 -110.499s-23 -91.333 -23 -144zM443.997 857.998h-134l-116 -132h135l48 56l49 -56h135z" />
    <glyph glyph-name="gcircumflex" unicode="&#x11d;" 
d="M504 488l-138.004 -0.000976562v-71c-30.667 54 -80.334 81 -149.001 81c-33.333 0 -61.833 -6.33301 -85.5 -19s-43.167 -30 -58.5 -52s-26.666 -47.667 -33.999 -77s-11 -61 -11 -95s3.5 -65.667 10.5 -95s18.167 -55 33.5 -77s34.833 -39.333 58.5 -52
s52.5 -19 86.5 -19c35.333 0 64.833 7.5 88.5 22.5s42.834 34.5 57.501 58.5v-75c0 -29.333 -7.66699 -53 -23 -71s-43.666 -27 -84.999 -27c-25.333 0 -51.666 2.66699 -78.999 8s-53.666 13 -78.999 23l-20 -106c26.667 -9.33301 56.5 -17.166 89.5 -23.499
s62.833 -9.5 89.5 -9.5c86 0 148.833 18 188.5 54s59.5 88.667 59.5 158v464zM362.996 254.999c0 -46 -9.33301 -79.167 -28 -99.5s-42 -30.5 -70 -30.5c-63.333 0 -95 43.333 -95 130c0 41.333 7.83301 73.5 23.5 96.5s39.5 34.5 71.5 34.5c30 0 53.833 -10.333 71.5 -31
s26.5 -54 26.5 -100zM359.996 699.999h-138l-106 -152h129l46 71l46 -71h129z" />
    <glyph glyph-name="Gbreve" unicode="&#x11e;" horiz-adv-x="664" 
d="M30 328c0 -47.333 6.99707 -91.502 20.9971 -132.502s35.667 -77 65 -108s66.5 -55.333 111.5 -73s98.167 -26.5 159.5 -26.5c20.667 0 41.667 1 63 3s42 4.5 62 7.5s38.333 6.5 55 10.5s30.667 8 42 12v293h-138v-200c-13.333 -2 -26.666 -3.66699 -39.999 -5
s-27.666 -2 -42.999 -2c-70 0 -122.833 18.333 -158.5 55s-53.5 91.667 -53.5 165c0 72 18.333 127.833 55 167.5s94 59.5 172 59.5c34 0 66.167 -3.33301 96.5 -10s59.5 -15 87.5 -25l21 117c-34 14.667 -68.333 25.334 -103 32.001s-73 10 -115 10
c-58.667 0 -110.5 -8.33301 -155.5 -25s-82.667 -40.167 -113 -70.5s-53.166 -67.166 -68.499 -110.499s-23 -91.333 -23 -144zM436.997 857.998c0 -16 -5 -28.5 -15 -37.5s-25.667 -13.5 -47 -13.5s-37 4.5 -47 13.5s-15 21.5 -15 37.5h-111
c0 -44.667 15.833 -77.834 47.5 -99.501s73.5 -32.5 125.5 -32.5s93.833 10.833 125.5 32.5s47.5 54.834 47.5 99.501h-111z" />
    <glyph glyph-name="gbreve" unicode="&#x11f;" 
d="M504 488l-138.004 -0.000976562v-71c-30.667 54 -80.334 81 -149.001 81c-33.333 0 -61.833 -6.33301 -85.5 -19s-43.167 -30 -58.5 -52s-26.666 -47.667 -33.999 -77s-11 -61 -11 -95s3.5 -65.667 10.5 -95s18.167 -55 33.5 -77s34.833 -39.333 58.5 -52
s52.5 -19 86.5 -19c35.333 0 64.833 7.5 88.5 22.5s42.834 34.5 57.501 58.5v-75c0 -29.333 -7.66699 -53 -23 -71s-43.666 -27 -84.999 -27c-25.333 0 -51.666 2.66699 -78.999 8s-53.666 13 -78.999 23l-20 -106c26.667 -9.33301 56.5 -17.166 89.5 -23.499
s62.833 -9.5 89.5 -9.5c86 0 148.833 18 188.5 54s59.5 88.667 59.5 158v464zM362.996 254.999c0 -46 -9.33301 -79.167 -28 -99.5s-42 -30.5 -70 -30.5c-63.333 0 -95 43.333 -95 130c0 41.333 7.83301 73.5 23.5 96.5s39.5 34.5 71.5 34.5c30 0 53.833 -10.333 71.5 -31
s26.5 -54 26.5 -100zM447.996 694.999h-102.002c0 -20 -5.5 -35.667 -16.5 -47s-27.167 -17 -48.5 -17s-37.5 5.66699 -48.5 17s-16.5 27 -16.5 47h-102c0 -24 4.16699 -45 12.5 -63s19.833 -33.333 34.5 -46s32.334 -22.167 53.001 -28.5s43 -9.5 67 -9.5
s46.333 3.16699 67 9.5s38.334 15.833 53.001 28.5s26.167 28 34.5 46s12.5 39 12.5 63z" />
    <glyph glyph-name="Gdotaccent" unicode="&#x120;" horiz-adv-x="664" 
d="M30 328c0 -47.333 6.99707 -91.502 20.9971 -132.502s35.667 -77 65 -108s66.5 -55.333 111.5 -73s98.167 -26.5 159.5 -26.5c20.667 0 41.667 1 63 3s42 4.5 62 7.5s38.333 6.5 55 10.5s30.667 8 42 12v293h-138v-200c-13.333 -2 -26.666 -3.66699 -39.999 -5
s-27.666 -2 -42.999 -2c-70 0 -122.833 18.333 -158.5 55s-53.5 91.667 -53.5 165c0 72 18.333 127.833 55 167.5s94 59.5 172 59.5c34 0 66.167 -3.33301 96.5 -10s59.5 -15 87.5 -25l21 117c-34 14.667 -68.333 25.334 -103 32.001s-73 10 -115 10
c-58.667 0 -110.5 -8.33301 -155.5 -25s-82.667 -40.167 -113 -70.5s-53.166 -67.166 -68.499 -110.499s-23 -91.333 -23 -144zM281.997 809.998c0 -22.667 7.66699 -42.334 23 -59.001s35.666 -25 60.999 -25s45.666 8.33301 60.999 25s23 36.334 23 59.001
c0 23.333 -7.66699 43.166 -23 59.499s-35.666 24.5 -60.999 24.5s-45.666 -8.16699 -60.999 -24.5s-23 -36.166 -23 -59.499z" />
    <glyph glyph-name="gdotaccent" unicode="&#x121;" 
d="M504 488l-138.004 -0.000976562v-71c-30.667 54 -80.334 81 -149.001 81c-33.333 0 -61.833 -6.33301 -85.5 -19s-43.167 -30 -58.5 -52s-26.666 -47.667 -33.999 -77s-11 -61 -11 -95s3.5 -65.667 10.5 -95s18.167 -55 33.5 -77s34.833 -39.333 58.5 -52
s52.5 -19 86.5 -19c35.333 0 64.833 7.5 88.5 22.5s42.834 34.5 57.501 58.5v-75c0 -29.333 -7.66699 -53 -23 -71s-43.666 -27 -84.999 -27c-25.333 0 -51.666 2.66699 -78.999 8s-53.666 13 -78.999 23l-20 -106c26.667 -9.33301 56.5 -17.166 89.5 -23.499
s62.833 -9.5 89.5 -9.5c86 0 148.833 18 188.5 54s59.5 88.667 59.5 158v464zM362.996 254.999c0 -46 -9.33301 -79.167 -28 -99.5s-42 -30.5 -70 -30.5c-63.333 0 -95 43.333 -95 130c0 41.333 7.83301 73.5 23.5 96.5s39.5 34.5 71.5 34.5c30 0 53.833 -10.333 71.5 -31
s26.5 -54 26.5 -100zM199.996 631.999c0 -22.667 7.66699 -42.334 23 -59.001s35.666 -25 60.999 -25s45.666 8.33301 60.999 25s23 36.334 23 59.001c0 23.333 -7.66699 43.166 -23 59.499s-35.666 24.5 -60.999 24.5s-45.666 -8.16699 -60.999 -24.5
s-23 -36.166 -23 -59.499z" />
    <glyph glyph-name="Gcommaaccent" unicode="&#x122;" horiz-adv-x="664" 
d="M30 328c0 -47.333 6.99707 -91.502 20.9971 -132.502s35.667 -77 65 -108s66.5 -55.333 111.5 -73s98.167 -26.5 159.5 -26.5c20.667 0 41.667 1 63 3s42 4.5 62 7.5s38.333 6.5 55 10.5s30.667 8 42 12v293h-138v-200c-13.333 -2 -26.666 -3.66699 -39.999 -5
s-27.666 -2 -42.999 -2c-70 0 -122.833 18.333 -158.5 55s-53.5 91.667 -53.5 165c0 72 18.333 127.833 55 167.5s94 59.5 172 59.5c34 0 66.167 -3.33301 96.5 -10s59.5 -15 87.5 -25l21 117c-34 14.667 -68.333 25.334 -103 32.001s-73 10 -115 10
c-58.667 0 -110.5 -8.33301 -155.5 -25s-82.667 -40.167 -113 -70.5s-53.166 -67.166 -68.499 -110.499s-23 -91.333 -23 -144zM475.997 -70.002h-163l-31 -180h120z" />
    <glyph glyph-name="gcommaaccent" unicode="&#x123;" 
d="M504 488l-138.004 -0.000976562v-71c-30.667 54 -80.334 81 -149.001 81c-33.333 0 -61.833 -6.33301 -85.5 -19s-43.167 -30 -58.5 -52s-26.666 -47.667 -33.999 -77s-11 -61 -11 -95s3.5 -65.667 10.5 -95s18.167 -55 33.5 -77s34.833 -39.333 58.5 -52
s52.5 -19 86.5 -19c35.333 0 64.833 7.5 88.5 22.5s42.834 34.5 57.501 58.5v-75c0 -29.333 -7.66699 -53 -23 -71s-43.666 -27 -84.999 -27c-25.333 0 -51.666 2.66699 -78.999 8s-53.666 13 -78.999 23l-20 -106c26.667 -9.33301 56.5 -17.166 89.5 -23.499
s62.833 -9.5 89.5 -9.5c86 0 148.833 18 188.5 54s59.5 88.667 59.5 158v464zM362.996 254.999c0 -46 -9.33301 -79.167 -28 -99.5s-42 -30.5 -70 -30.5c-63.333 0 -95 43.333 -95 130c0 41.333 7.83301 73.5 23.5 96.5s39.5 34.5 71.5 34.5c30 0 53.833 -10.333 71.5 -31
s26.5 -54 26.5 -100zM205.996 547.999h168l30 152h-133z" />
    <glyph glyph-name="Hcircumflex" unicode="&#x124;" horiz-adv-x="688" 
d="M65 0h146v271h266v-271h146v666h-146v-265h-266v265h-146v-666zM411 858h-134l-116 -132h135l48 56l49 -56h135z" />
    <glyph glyph-name="hcircumflex" unicode="&#x125;" horiz-adv-x="558" 
d="M503 0v331.001c0 54 -11.833 95.333 -35.5 124s-63.834 43 -120.501 43c-38 0 -68.833 -8.16699 -92.5 -24.5s-41.167 -35.833 -52.5 -58.5v251h-142v-666h142v268c0 35.333 7.33301 62.166 22 80.499s38.334 27.5 71.001 27.5c22 0 38.5 -6 49.5 -18
s16.5 -28.667 16.5 -50v-308h142zM199 858.001h-134l-116 -132h135l48 56l49 -56h135z" />
    <glyph glyph-name="Hbar" unicode="&#x126;" horiz-adv-x="748" 
d="M653 0v489h70v90h-70v87h-146v-87h-266v87h-146v-87h-70v-90h70v-489h146v271h266v-271h146zM241 401v88h266v-88h-266z" />
    <glyph glyph-name="hbar" unicode="&#x127;" horiz-adv-x="568" 
d="M12 525l58 0.000976562v-525h142v268c0 35.333 7.33301 62.166 22 80.499s38.334 27.5 71.001 27.5c22 0 38.5 -6 49.5 -18s16.5 -28.667 16.5 -50v-308h142v331c0 54 -11.833 95.333 -35.5 124s-63.834 43 -120.501 43c-38 0 -68.833 -8.16699 -92.5 -24.5
s-41.167 -35.833 -52.5 -58.5v110h84v87h-84v54h-142v-54h-58v-87z" />
    <glyph glyph-name="Itilde" unicode="&#x128;" horiz-adv-x="286" 
d="M70 0h146v666h-146v-666zM252 878c-3.33301 -10 -7.5 -19.833 -12.5 -29.5s-14.167 -14.5 -27.5 -14.5c-8 0 -17.5 2.16699 -28.5 6.5s-22.667 9.33301 -35 15s-25.333 10.667 -39 15s-26.834 6.5 -39.501 6.5c-35.333 0 -62 -9.83301 -80 -29.5
s-32.667 -49.167 -44 -88.5l93 -33c4.66699 12 9.66699 22.5 15 31.5s14.666 13.5 27.999 13.5c9.33301 0 20.333 -2.33301 33 -7l40 -15c14 -5.33301 28 -10.333 42 -15s26.667 -7 38 -7c16.667 0 30.834 3.33301 42.501 10s21.5 15.5 29.5 26.5s14.833 23.5 20.5 37.5
s10.834 28.667 15.501 44z" />
    <glyph glyph-name="itilde" unicode="&#x129;" horiz-adv-x="262" 
d="M202 0v488h-142v-488h142zM232 700c-3.33301 -9.33301 -7.49805 -19 -12.498 -29s-14.167 -15 -27.5 -15c-8 0 -17 2.16699 -27 6.5s-20.833 9.33301 -32.5 15s-23.834 10.667 -36.501 15s-25 6.5 -37 6.5c-33.333 0 -58.666 -9.66699 -75.999 -29s-32.333 -49 -45 -89
l89 -33c4.66699 12 9.66699 22.5 15 31.5s14.666 13.5 27.999 13.5c9.33301 0 19.666 -2.33301 30.999 -7l35.5 -15c12.333 -5.33301 24.833 -10.333 37.5 -15s25 -7 37 -7c17.333 0 32.166 3.33301 44.499 10s22.833 15.5 31.5 26.5s15.834 23.667 21.501 38
s10.5 28.833 14.5 43.5z" />
    <glyph glyph-name="uni012A" unicode="&#x12a;" horiz-adv-x="286" 
d="M70 0h146v666h-146v-666zM320 733v110h-352v-110h352z" />
    <glyph glyph-name="imacron" unicode="&#x12b;" horiz-adv-x="262" 
d="M202 0v488h-142v-488h142zM288 562v108h-312v-108h312z" />
    <glyph glyph-name="Ibreve" unicode="&#x12c;" horiz-adv-x="286" 
d="M70 0h146v666h-146v-666zM206 858c0 -16 -5 -28.5 -15 -37.5s-25.667 -13.5 -47 -13.5s-37 4.5 -47 13.5s-15 21.5 -15 37.5h-111c0 -44.667 15.833 -77.834 47.5 -99.501s73.5 -32.5 125.5 -32.5s93.833 10.833 125.5 32.5s47.5 54.834 47.5 99.501h-111z" />
    <glyph glyph-name="uni012D" unicode="&#x12d;" horiz-adv-x="262" 
d="M202 0v488h-142v-488h142zM299 695h-102.002c0 -20 -5.5 -35.667 -16.5 -47s-27.167 -17 -48.5 -17s-37.5 5.66699 -48.5 17s-16.5 27 -16.5 47h-102c0 -24 4.16699 -45 12.5 -63s19.833 -33.333 34.5 -46s32.334 -22.167 53.001 -28.5s43 -9.5 67 -9.5
s46.333 3.16699 67 9.5s38.334 15.833 53.001 28.5s26.167 28 34.5 46s12.5 39 12.5 63z" />
    <glyph glyph-name="Iogonek" unicode="&#x12e;" horiz-adv-x="286" 
d="M205 -104c-8 -3.33301 -17.333 -4.99902 -28 -4.99902c-20 0 -30 10 -30 30c0 8.66699 2.33301 17 7 25s10.5 15.333 17.5 22s14.5 12.667 22.5 18s15.333 10 22 14v666h-146v-666c-10.667 -12.667 -19.667 -25.834 -27 -39.501s-11 -31.167 -11 -52.5
c0 -28 8.16699 -51 24.5 -69s42.5 -27 78.5 -27c16 0 31 1.66699 45 5s26 7 36 11z" />
    <glyph glyph-name="iogonek" unicode="&#x12f;" horiz-adv-x="262" 
d="M47 623c0 -22.667 7.66699 -42.334 23 -59.001s35.666 -25 60.999 -25s45.666 8.33301 60.999 25s23 36.334 23 59.001c0 23.333 -7.66699 43.166 -23 59.499s-35.666 24.5 -60.999 24.5s-45.666 -8.16699 -60.999 -24.5s-23 -36.166 -23 -59.499zM191 -104
c-8 -3.33301 -17.335 -5 -28.002 -5c-20 0 -30 10 -30 30c0 8.66699 2.33301 17 7 25s10.5 15.333 17.5 22s14.5 12.667 22.5 18s15.333 10 22 14v488h-142v-488c-9.33301 -10 -18.666 -22.5 -27.999 -37.5s-14 -33.167 -14 -54.5c0 -28 8.16699 -51 24.5 -69
s42.5 -27 78.5 -27c16 0 31.833 1.83301 47.5 5.5s26.834 7.16699 33.501 10.5z" />
    <glyph glyph-name="Idotaccent" unicode="&#x130;" horiz-adv-x="286" 
d="M70 0h146v666h-146v-666zM60 810c0 -22.667 7.66699 -42.334 23 -59.001s35.666 -25 60.999 -25s45.666 8.33301 60.999 25s23 36.334 23 59.001c0 23.333 -7.66699 43.166 -23 59.499s-35.666 24.5 -60.999 24.5s-45.666 -8.16699 -60.999 -24.5
s-23 -36.166 -23 -59.499z" />
    <glyph glyph-name="dotlessi" unicode="&#x131;" horiz-adv-x="262" 
d="M202 0v488h-142v-488h142z" />
    <glyph glyph-name="IJ" unicode="&#x132;" horiz-adv-x="681" 
d="M70 0h146v666h-146v-666zM303 11c18.667 -6.66699 39.667 -11.834 63 -15.501s45.666 -5.5 66.999 -5.5c60 0 105.5 16.5 136.5 49.5s46.5 78.5 46.5 136.5v490h-146v-491c0 -19.333 -5.16699 -34.666 -15.5 -45.999s-28.166 -17 -53.499 -17c-12 0 -25.333 1 -40 3
s-28.667 4.66699 -42 8z" />
    <glyph glyph-name="ij" unicode="&#x133;" horiz-adv-x="524" 
d="M47 623c0 -22.667 7.66699 -42.334 23 -59.001s35.666 -25 60.999 -25s45.666 8.33301 60.999 25s23 36.334 23 59.001c0 23.333 -7.66699 43.166 -23 59.499s-35.666 24.5 -60.999 24.5s-45.666 -8.16699 -60.999 -24.5s-23 -36.166 -23 -59.499zM202 0v488h-142v-488
h142zM309 623c0 -22.667 7.66699 -42.334 23 -59.001s35.666 -25 60.999 -25s45.666 8.33301 60.999 25s23 36.334 23 59.001c0 23.333 -7.66699 43.166 -23 59.499s-35.666 24.5 -60.999 24.5s-45.666 -8.16699 -60.999 -24.5s-23 -36.166 -23 -59.499zM286 -68
c-13.333 0 -25.3311 1.33203 -35.998 3.99902l-10 -112c9.33301 -3.33301 21.666 -6.16602 36.999 -8.49902s30 -3.5 44 -3.5c48 0 83.833 11.833 107.5 35.5s35.5 57.5 35.5 101.5v539h-142v-519c0 -13.333 -2.83301 -22.833 -8.5 -28.5s-14.834 -8.5 -27.501 -8.5z" />
    <glyph glyph-name="Jcircumflex" unicode="&#x134;" horiz-adv-x="395" 
d="M17 11c18.667 -6.66699 39.667 -11.834 63 -15.501s45.666 -5.5 66.999 -5.5c60 0 105.5 16.5 136.5 49.5s46.5 78.5 46.5 136.5v490h-146v-491c0 -19.333 -5.16699 -34.666 -15.5 -45.999s-28.166 -17 -53.499 -17c-12 0 -25.333 1 -40 3s-28.667 4.66699 -42 8z
M323 858h-134l-116 -132h135l48 56l49 -56h135z" />
    <glyph glyph-name="jcircumflex" unicode="&#x135;" horiz-adv-x="262" 
d="M24 -68c12.667 0 21.832 2.83398 27.499 8.50098s8.5 15.167 8.5 28.5v519h142v-539c0 -44 -11.833 -77.833 -35.5 -101.5s-59.5 -35.5 -107.5 -35.5c-14 0 -28.667 1.16699 -44 3.5s-27.666 5.16602 -36.999 8.49902l10 112c10.667 -2.66699 22.667 -4 36 -4z
M305.998 548.001h-129l-46 71l-46 -71h-129l106 152h138z" />
    <glyph glyph-name="Kcommaaccent" unicode="&#x136;" horiz-adv-x="641" 
d="M65 0h146v311l233 -311h187l-270 341l266 325h-187l-229 -297v297h-146v-666zM412 -70h-163l-31 -180h120z" />
    <glyph glyph-name="kcommaaccent" unicode="&#x137;" horiz-adv-x="512" 
d="M351 0h164l-176 247l168 241h-162l-143 -214v392h-142v-666h142v220zM365 -70h-163l-31 -180h120z" />
    <glyph glyph-name="kgreenlandic" unicode="&#x138;" horiz-adv-x="512" 
d="M351 0h164l-176 247l168 241h-162l-143 -214v214h-142v-488h142v220z" />
    <glyph glyph-name="Lacute" unicode="&#x139;" horiz-adv-x="529" 
d="M65 0h441v126h-295v540h-146v-666zM341 858h-194l-74 -132h141z" />
    <glyph glyph-name="lacute" unicode="&#x13a;" horiz-adv-x="287" 
d="M272 3l-3.00098 106c-10 -3.33301 -21 -5 -33 -5c-24 0 -36 10.667 -36 32v530h-142v-531c0 -46 9.66699 -81.667 29 -107s53 -38 101 -38c16 0 31.833 1.33301 47.5 4s27.834 5.66699 36.501 9zM328.999 858h-194l-74 -132h141z" />
    <glyph glyph-name="Lcommaaccent" unicode="&#x13b;" horiz-adv-x="529" 
d="M65 0h441v126h-295v540h-146v-666zM384 -70h-163l-31 -180h120z" />
    <glyph glyph-name="lcommaaccent" unicode="&#x13c;" horiz-adv-x="287" 
d="M272 3l-3.00098 106c-10 -3.33301 -21 -5 -33 -5c-24 0 -36 10.667 -36 32v530h-142v-531c0 -46 9.66699 -81.667 29 -107s53 -38 101 -38c16 0 31.833 1.33301 47.5 4s27.834 5.66699 36.501 9zM255.999 -70h-163l-31 -180h120z" />
    <glyph glyph-name="Lcaron" unicode="&#x13d;" horiz-adv-x="529" 
d="M65 0h441v126h-295v540h-146v-666zM493 666h-166l-34 -229h110z" />
    <glyph glyph-name="lcaron" unicode="&#x13e;" horiz-adv-x="422" 
d="M272 3l-3.00098 106c-10 -3.33301 -21 -5 -33 -5c-24 0 -36 10.667 -36 32v530h-142v-531c0 -46 9.66699 -81.667 29 -107s53 -38 101 -38c16 0 31.833 1.33301 47.5 4s27.834 5.66699 36.501 9zM451.999 666h-166l-34 -229h110z" />
    <glyph glyph-name="Ldot" unicode="&#x13f;" horiz-adv-x="529" 
d="M65 0h441v126h-295v540h-146v-666zM286 311c0 -24.667 7.66699 -44.5 23 -59.5s35.333 -22.5 60 -22.5s44.667 7.5 60 22.5s23 34.833 23 59.5s-7.66699 44.5 -23 59.5s-35.333 22.5 -60 22.5s-44.667 -7.5 -60 -22.5s-23 -34.833 -23 -59.5z" />
    <glyph glyph-name="ldot" unicode="&#x140;" horiz-adv-x="417" 
d="M272 3l-3.00098 106c-10 -3.33301 -21 -5 -33 -5c-24 0 -36 10.667 -36 32v530h-142v-531c0 -46 9.66699 -81.667 29 -107s53 -38 101 -38c16 0 31.833 1.33301 47.5 4s27.834 5.66699 36.501 9zM255.999 281c0 -24.667 7.66699 -44.5 23 -59.5s35.333 -22.5 60 -22.5
s44.667 7.5 60 22.5s23 34.833 23 59.5s-7.66699 44.5 -23 59.5s-35.333 22.5 -60 22.5s-44.667 -7.5 -60 -22.5s-23 -34.833 -23 -59.5z" />
    <glyph glyph-name="Lslash" unicode="&#x141;" horiz-adv-x="540" 
d="M20 212l56 24v-236h441v126h-295v173l133 58v131l-133 -58v236h-146v-299l-56 -24v-131z" />
    <glyph glyph-name="lslash" unicode="&#x142;" horiz-adv-x="291" 
d="M15 239l44.999 20v-124c0 -46 9.66699 -81.667 29 -107s53 -38 101 -38c16 0 31.833 1.33301 47.5 4s27.834 5.66699 36.501 9l-3 106c-10 -3.33301 -21 -5 -33 -5c-24 0 -36 10.667 -36 32v186l72 32v134l-72 -32v210h-142v-273l-45 -20v-134z" />
    <glyph glyph-name="Nacute" unicode="&#x143;" horiz-adv-x="714" 
d="M65 0h142v424l297 -424h145v666h-142v-424l-297 424h-145v-666zM541 858h-194l-74 -132h141z" />
    <glyph glyph-name="nacute" unicode="&#x144;" horiz-adv-x="558" 
d="M503 0v331c0 54 -11.833 95.333 -35.5 124s-63.834 43 -120.501 43c-20.667 0 -39 -2.5 -55 -7.5s-30 -11.667 -42 -20s-22.333 -17.666 -31 -27.999s-15.667 -20.833 -21 -31.5v77h-138v-488h142v268c0 35.333 7.33301 62.166 22 80.499s38.334 27.5 71.001 27.5
c22 0 38.5 -6 49.5 -18s16.5 -28.667 16.5 -50v-308h142zM205 548h139l93 152h-182z" />
    <glyph glyph-name="Ncommaaccent" unicode="&#x145;" horiz-adv-x="714" 
d="M65 0h142v424l297 -424h145v666h-142v-424l-297 424h-145v-666zM449 -70h-163l-31 -180h120z" />
    <glyph glyph-name="ncommaaccent" unicode="&#x146;" horiz-adv-x="558" 
d="M503 0v331c0 54 -11.833 95.333 -35.5 124s-63.834 43 -120.501 43c-20.667 0 -39 -2.5 -55 -7.5s-30 -11.667 -42 -20s-22.333 -17.666 -31 -27.999s-15.667 -20.833 -21 -31.5v77h-138v-488h142v268c0 35.333 7.33301 62.166 22 80.499s38.334 27.5 71.001 27.5
c22 0 38.5 -6 49.5 -18s16.5 -28.667 16.5 -50v-308h142zM367 -70h-163l-31 -180h120z" />
    <glyph glyph-name="Ncaron" unicode="&#x147;" horiz-adv-x="714" 
d="M65 0h142v424l297 -424h145v666h-142v-424l-297 424h-145v-666zM539 858h-135l-49 -56l-48 56h-135l116 -132h134z" />
    <glyph glyph-name="ncaron" unicode="&#x148;" horiz-adv-x="558" 
d="M503 0v331c0 54 -11.833 95.333 -35.5 124s-63.834 43 -120.501 43c-20.667 0 -39 -2.5 -55 -7.5s-30 -11.667 -42 -20s-22.333 -17.666 -31 -27.999s-15.667 -20.833 -21 -31.5v77h-138v-488h142v268c0 35.333 7.33301 62.166 22 80.499s38.334 27.5 71.001 27.5
c22 0 38.5 -6 49.5 -18s16.5 -28.667 16.5 -50v-308h142zM456 700h-129l-46 -71l-46 71h-129l106 -152h138z" />
    <glyph glyph-name="napostrophe" unicode="&#x149;" horiz-adv-x="704" 
d="M649 0v331c0 54 -11.833 95.333 -35.5 124s-63.834 43 -120.501 43c-20.667 0 -39 -2.5 -55 -7.5s-30 -11.667 -42 -20s-22.333 -17.666 -31 -27.999s-15.667 -20.833 -21 -31.5v77h-138v-488h142v268c0 35.333 7.33301 62.166 22 80.499s38.334 27.5 71.001 27.5
c22 0 38.5 -6 49.5 -18s16.5 -28.667 16.5 -50v-308h142zM211 666h-166l-34 -229h110z" />
    <glyph glyph-name="Eng" unicode="&#x14a;" horiz-adv-x="714" 
d="M649 666h-142.001v-424l-297 424h-145v-666h142v424l293 -398c-9.33301 -28 -25.666 -51 -48.999 -69s-51 -32.333 -83 -43l46 -102c44.667 12 82 27 112 45s54.167 39 72.5 63s31.333 51 39 81s11.5 63 11.5 99v566z" />
    <glyph glyph-name="eng" unicode="&#x14b;" horiz-adv-x="558" 
d="M275 -90l62 -98.001c54 26.667 95.167 60 123.5 100s42.5 89.333 42.5 148v271c0 54 -11.833 95.333 -35.5 124s-63.834 43 -120.501 43c-20.667 0 -39 -2.5 -55 -7.5s-30 -11.667 -42 -20s-22.333 -17.666 -31 -27.999s-15.667 -20.833 -21 -31.5v77h-138v-488h142v268
c0 35.333 7.33301 62.166 22 80.499s38.334 27.5 71.001 27.5c22 0 38.5 -6 49.5 -18s16.5 -28.667 16.5 -50v-254c0 -34 -7 -62.167 -21 -84.5s-35.667 -42.166 -65 -59.499z" />
    <glyph glyph-name="Omacron" unicode="&#x14c;" horiz-adv-x="698" 
d="M30 333c0 -49.333 6.5 -95.166 19.5 -137.499s32.667 -78.833 59 -109.5s59.5 -54.667 99.5 -72s87 -26 141 -26s101 8.66699 141 26s73.167 41.333 99.5 72s46 67.167 59 109.5s19.5 88.166 19.5 137.499s-6.5 95.166 -19.5 137.499s-32.667 78.833 -59 109.5
s-59.5 54.667 -99.5 72s-87 26 -141 26s-101 -8.66699 -141 -26s-73.167 -41.333 -99.5 -72s-46 -67.167 -59 -109.5s-19.5 -88.166 -19.5 -137.499zM349 112c-30.667 0 -56.834 5.33301 -78.501 16s-39.5 25.834 -53.5 45.501s-24.333 43 -31 70s-10 56.833 -10 89.5
s3.33301 62.5 10 89.5s17 50.167 31 69.5s31.833 34.5 53.5 45.5s47.834 16.5 78.501 16.5s56.834 -5.5 78.501 -16.5s39.5 -26.167 53.5 -45.5s24.333 -42.5 31 -69.5s10 -56.833 10 -89.5s-3.33301 -62.5 -10 -89.5s-17 -50.333 -31 -70s-31.833 -34.834 -53.5 -45.501
s-47.834 -16 -78.501 -16zM525 733v110h-352v-110h352z" />
    <glyph glyph-name="omacron" unicode="&#x14d;" horiz-adv-x="532" 
d="M504 244c0 36.667 -5.16602 70.667 -15.499 102s-25.5 58.166 -45.5 80.499s-44.833 39.833 -74.5 52.5s-63.834 19 -102.501 19c-39.333 0 -73.833 -6.33301 -103.5 -19s-54.5 -30.167 -74.5 -52.5s-35 -49.166 -45 -80.499s-15 -65.333 -15 -102
c0 -37.333 5 -71.5 15 -102.5s25 -57.667 45 -80s44.833 -39.833 74.5 -52.5s64.167 -19 103.5 -19s73.833 6.33301 103.5 19s54.5 30.167 74.5 52.5s35 49 45 80s15 65.167 15 102.5zM362.001 244c0 -46 -7.5 -81 -22.5 -105s-39.5 -36 -73.5 -36s-58.5 12 -73.5 36
s-22.5 59 -22.5 105s7.5 81 22.5 105s39.5 36 73.5 36s58.5 -12 73.5 -36s22.5 -59 22.5 -105zM422.001 562v108h-312v-108h312z" />
    <glyph glyph-name="Obreve" unicode="&#x14e;" horiz-adv-x="698" 
d="M30 333c0 -49.333 6.5 -95.166 19.5 -137.499s32.667 -78.833 59 -109.5s59.5 -54.667 99.5 -72s87 -26 141 -26s101 8.66699 141 26s73.167 41.333 99.5 72s46 67.167 59 109.5s19.5 88.166 19.5 137.499s-6.5 95.166 -19.5 137.499s-32.667 78.833 -59 109.5
s-59.5 54.667 -99.5 72s-87 26 -141 26s-101 -8.66699 -141 -26s-73.167 -41.333 -99.5 -72s-46 -67.167 -59 -109.5s-19.5 -88.166 -19.5 -137.499zM349 112c-30.667 0 -56.834 5.33301 -78.501 16s-39.5 25.834 -53.5 45.501s-24.333 43 -31 70s-10 56.833 -10 89.5
s3.33301 62.5 10 89.5s17 50.167 31 69.5s31.833 34.5 53.5 45.5s47.834 16.5 78.501 16.5s56.834 -5.5 78.501 -16.5s39.5 -26.167 53.5 -45.5s24.333 -42.5 31 -69.5s10 -56.833 10 -89.5s-3.33301 -62.5 -10 -89.5s-17 -50.333 -31 -70s-31.833 -34.834 -53.5 -45.501
s-47.834 -16 -78.501 -16zM411 858c0 -16 -5 -28.5 -15 -37.5s-25.667 -13.5 -47 -13.5s-37 4.5 -47 13.5s-15 21.5 -15 37.5h-111c0 -44.667 15.833 -77.834 47.5 -99.501s73.5 -32.5 125.5 -32.5s93.833 10.833 125.5 32.5s47.5 54.834 47.5 99.501h-111z" />
    <glyph glyph-name="obreve" unicode="&#x14f;" horiz-adv-x="532" 
d="M504 244c0 36.667 -5.16602 70.667 -15.499 102s-25.5 58.166 -45.5 80.499s-44.833 39.833 -74.5 52.5s-63.834 19 -102.501 19c-39.333 0 -73.833 -6.33301 -103.5 -19s-54.5 -30.167 -74.5 -52.5s-35 -49.166 -45 -80.499s-15 -65.333 -15 -102
c0 -37.333 5 -71.5 15 -102.5s25 -57.667 45 -80s44.833 -39.833 74.5 -52.5s64.167 -19 103.5 -19s73.833 6.33301 103.5 19s54.5 30.167 74.5 52.5s35 49 45 80s15 65.167 15 102.5zM362.001 244c0 -46 -7.5 -81 -22.5 -105s-39.5 -36 -73.5 -36s-58.5 12 -73.5 36
s-22.5 59 -22.5 105s7.5 81 22.5 105s39.5 36 73.5 36s58.5 -12 73.5 -36s22.5 -59 22.5 -105zM433.001 695h-102.002c0 -20 -5.5 -35.667 -16.5 -47s-27.167 -17 -48.5 -17s-37.5 5.66699 -48.5 17s-16.5 27 -16.5 47h-102c0 -24 4.16699 -45 12.5 -63
s19.833 -33.333 34.5 -46s32.334 -22.167 53.001 -28.5s43 -9.5 67 -9.5s46.333 3.16699 67 9.5s38.334 15.833 53.001 28.5s26.167 28 34.5 46s12.5 39 12.5 63z" />
    <glyph glyph-name="Ohungarumlaut" unicode="&#x150;" horiz-adv-x="698" 
d="M30 333c0 -49.333 6.5 -95.166 19.5 -137.499s32.667 -78.833 59 -109.5s59.5 -54.667 99.5 -72s87 -26 141 -26s101 8.66699 141 26s73.167 41.333 99.5 72s46 67.167 59 109.5s19.5 88.166 19.5 137.499s-6.5 95.166 -19.5 137.499s-32.667 78.833 -59 109.5
s-59.5 54.667 -99.5 72s-87 26 -141 26s-101 -8.66699 -141 -26s-73.167 -41.333 -99.5 -72s-46 -67.167 -59 -109.5s-19.5 -88.166 -19.5 -137.499zM349 112c-30.667 0 -56.834 5.33301 -78.501 16s-39.5 25.834 -53.5 45.501s-24.333 43 -31 70s-10 56.833 -10 89.5
s3.33301 62.5 10 89.5s17 50.167 31 69.5s31.833 34.5 53.5 45.5s47.834 16.5 78.501 16.5s56.834 -5.5 78.501 -16.5s39.5 -26.167 53.5 -45.5s24.333 -42.5 31 -69.5s10 -56.833 10 -89.5s-3.33301 -62.5 -10 -89.5s-17 -50.333 -31 -70s-31.833 -34.834 -53.5 -45.501
s-47.834 -16 -78.501 -16zM601 858h-164l-50 -132h133zM383 858h-153l-38 -132h127z" />
    <glyph glyph-name="ohungarumlaut" unicode="&#x151;" horiz-adv-x="532" 
d="M504 244c0 36.667 -5.16602 70.667 -15.499 102s-25.5 58.166 -45.5 80.499s-44.833 39.833 -74.5 52.5s-63.834 19 -102.501 19c-39.333 0 -73.833 -6.33301 -103.5 -19s-54.5 -30.167 -74.5 -52.5s-35 -49.166 -45 -80.499s-15 -65.333 -15 -102
c0 -37.333 5 -71.5 15 -102.5s25 -57.667 45 -80s44.833 -39.833 74.5 -52.5s64.167 -19 103.5 -19s73.833 6.33301 103.5 19s54.5 30.167 74.5 52.5s35 49 45 80s15 65.167 15 102.5zM362.001 244c0 -46 -7.5 -81 -22.5 -105s-39.5 -36 -73.5 -36s-58.5 12 -73.5 36
s-22.5 59 -22.5 105s7.5 81 22.5 105s39.5 36 73.5 36s58.5 -12 73.5 -36s22.5 -59 22.5 -105zM518.001 700h-164l-56 -152h133zM304.001 700h-153l-44 -152h127z" />
    <glyph glyph-name="OE" unicode="&#x152;" horiz-adv-x="1012" 
d="M388 678c-61.333 0 -114.333 -8.16699 -159 -24.5s-81.834 -39.5 -111.501 -69.5s-51.667 -66.333 -66 -109s-21.5 -90 -21.5 -142s7.16699 -99.333 21.5 -142s36.333 -79 66 -109s66.834 -53.167 111.501 -69.5s97.667 -24.5 159 -24.5c44.667 0 85 4 121 12h458v126
h-312v152h292v126h-292v136h312v126h-458c-36 8 -76.333 12 -121 12zM509 126c-16.667 -5.33301 -34.001 -8.99707 -52.001 -10.9971s-38.667 -3 -62 -3c-39.333 0 -73 5.16699 -101 15.5s-50.667 25.166 -68 44.499s-30 42.666 -38 69.999s-12 57.666 -12 90.999
c0 32 4 61.5 12 88.5s20.5 50.333 37.5 70s39 35 66 46s59.833 16.5 98.5 16.5c24.667 0 46.334 -1.16699 65.001 -3.5s36.667 -5.83301 54 -10.5v-414z" />
    <glyph glyph-name="oe" unicode="&#x153;" horiz-adv-x="828" 
d="M809 192v65.998c0 36 -4 68.667 -12 98s-20.5 54.5 -37.5 75.5s-38.667 37.333 -65 49s-57.833 17.5 -94.5 17.5c-39.333 0 -73 -6.33301 -101 -19s-51.333 -29.667 -70 -51c-17.333 22 -40 39.167 -68 51.5s-59.667 18.5 -95 18.5
c-39.333 0 -73.833 -6.33301 -103.5 -19s-54.5 -30.167 -74.5 -52.5s-35 -49.166 -45 -80.499s-15 -65.333 -15 -102c0 -37.333 5 -71.5 15 -102.5s25 -57.667 45 -80s44.833 -39.833 74.5 -52.5s64.167 -19 103.5 -19c35.333 0 67.166 6.33301 95.499 19
s50.833 29.334 67.5 50.001c20 -22 45 -39 75 -51s66 -18 108 -18c37.333 0 72 3.83301 104 11.5s62 18.167 90 31.5l-24 96c-22.667 -10 -46.167 -18.167 -70.5 -24.5s-50.166 -9.5 -77.499 -9.5c-39.333 0 -69 7.83301 -89 23.5s-32.667 40.167 -38 73.5h302zM362 243.998
c0 -46 -7.5 -81 -22.5 -105s-39.5 -36 -73.5 -36s-58.5 12 -73.5 36s-22.5 59 -22.5 105s7.5 81 22.5 105s39.5 36 73.5 36s58.5 -12 73.5 -36s22.5 -59 22.5 -105zM598 400.998c28 0 48.001 -8.66699 60.001 -26s18 -41 18 -71v-13h-171
c3.33301 36 12.166 63.333 26.499 82s36.5 28 66.5 28z" />
    <glyph glyph-name="Racute" unicode="&#x154;" horiz-adv-x="669" 
d="M608 451c0 32.667 -5.16797 62.167 -15.501 88.5s-25.166 48.833 -44.499 67.5s-43 33.167 -71 43.5s-59.333 15.5 -94 15.5h-318v-666h146v236h106l149 -236h183l-175 253c41.333 16 74 41.5 98 76.5s36 75.5 36 121.5zM461.999 451c0 -32.667 -9.5 -57.5 -28.5 -74.5
s-43.5 -25.5 -73.5 -25.5h-149v198h149c30 0 54.5 -8.33301 73.5 -25s28.5 -41 28.5 -73zM485.999 858h-194l-74 -132h141z" />
    <glyph glyph-name="racute" unicode="&#x155;" horiz-adv-x="358" 
d="M353 358l0.000976562 130c-4.66699 1.33301 -11 2.5 -19 3.5s-15.667 1.5 -23 1.5c-32 0 -56.333 -7.83301 -73 -23.5s-29.667 -37.5 -39 -65.5v84h-139v-488h143v219c0 50 8.16699 86.167 24.5 108.5s44.166 33.5 83.499 33.5c14.667 0 28.667 -1 42 -3zM128.001 548
h139l93 152h-182z" />
    <glyph glyph-name="Rcommaaccent" unicode="&#x156;" horiz-adv-x="669" 
d="M608 451c0 32.667 -5.16797 62.167 -15.501 88.5s-25.166 48.833 -44.499 67.5s-43 33.167 -71 43.5s-59.333 15.5 -94 15.5h-318v-666h146v236h106l149 -236h183l-175 253c41.333 16 74 41.5 98 76.5s36 75.5 36 121.5zM461.999 451c0 -32.667 -9.5 -57.5 -28.5 -74.5
s-43.5 -25.5 -73.5 -25.5h-149v198h149c30 0 54.5 -8.33301 73.5 -25s28.5 -41 28.5 -73zM421.999 -70h-163l-31 -180h120z" />
    <glyph glyph-name="rcommaaccent" unicode="&#x157;" horiz-adv-x="358" 
d="M353 358l0.000976562 130c-4.66699 1.33301 -11 2.5 -19 3.5s-15.667 1.5 -23 1.5c-32 0 -56.333 -7.83301 -73 -23.5s-29.667 -37.5 -39 -65.5v84h-139v-488h143v219c0 50 8.16699 86.167 24.5 108.5s44.166 33.5 83.499 33.5c14.667 0 28.667 -1 42 -3zM214.001 -70
h-163l-31 -180h120z" />
    <glyph glyph-name="Rcaron" unicode="&#x158;" horiz-adv-x="669" 
d="M608 451c0 32.667 -5.16797 62.167 -15.501 88.5s-25.166 48.833 -44.499 67.5s-43 33.167 -71 43.5s-59.333 15.5 -94 15.5h-318v-666h146v236h106l149 -236h183l-175 253c41.333 16 74 41.5 98 76.5s36 75.5 36 121.5zM461.999 451c0 -32.667 -9.5 -57.5 -28.5 -74.5
s-43.5 -25.5 -73.5 -25.5h-149v198h149c30 0 54.5 -8.33301 73.5 -25s28.5 -41 28.5 -73zM489.999 858h-135l-49 -56l-48 56h-135l116 -132h134z" />
    <glyph glyph-name="rcaron" unicode="&#x159;" horiz-adv-x="358" 
d="M353 358l0.000976562 130c-4.66699 1.33301 -11 2.5 -19 3.5s-15.667 1.5 -23 1.5c-32 0 -56.333 -7.83301 -73 -23.5s-29.667 -37.5 -39 -65.5v84h-139v-488h143v219c0 50 8.16699 86.167 24.5 108.5s44.166 33.5 83.499 33.5c14.667 0 28.667 -1 42 -3zM387.001 700
h-129l-46 -71l-46 71h-129l106 -152h138z" />
    <glyph glyph-name="Sacute" unicode="&#x15a;" horiz-adv-x="571" 
d="M541 197c0 32.667 -4.8291 60.168 -14.4961 82.501s-23.834 41.166 -42.501 56.499s-41.667 28.166 -69 38.499s-59 19.833 -95 28.5c-26.667 6 -48.834 11.667 -66.501 17s-31.834 11 -42.501 17s-18.334 13 -23.001 21s-7 18.333 -7 31c0 28 9 46.667 27 56
s45.333 14 82 14c35.333 0 70.5 -4.16699 105.5 -12.5s66.833 -18.833 95.5 -31.5l26 116c-34 15.333 -69.167 27 -105.5 35s-77.5 12 -123.5 12c-37.333 0 -71.333 -3.33301 -102 -10s-57.334 -17.834 -80.001 -33.501s-40.167 -36.667 -52.5 -63
s-18.5 -59.166 -18.5 -98.499c0 -31.333 5 -58.333 15 -81s24.667 -42 44 -58s43 -29.167 71 -39.5s60.333 -19.166 97 -26.499c24.667 -5.33301 45.5 -10.333 62.5 -15s30.833 -10.334 41.5 -17.001s18.167 -14.5 22.5 -23.5s6.5 -19.833 6.5 -32.5
c0 -27.333 -10.667 -46.166 -32 -56.499s-50.333 -15.5 -87 -15.5c-32 0 -66.167 4.33301 -102.5 13s-71.5 19.667 -105.5 33l-31 -117c35.333 -14.667 74.333 -26.5 117 -35.5s83.667 -13.5 123 -13.5c84.667 0 149.834 18.167 195.501 54.5s68.5 87.833 68.5 154.5z
M465.004 858.001h-194l-74 -132h141z" />
    <glyph glyph-name="sacute" unicode="&#x15b;" horiz-adv-x="445" 
d="M420 159c0 22.667 -3.49902 41.833 -10.499 57.5s-17.167 29.167 -30.5 40.5s-29.666 20.833 -48.999 28.5s-41.333 15.167 -66 22.5l-45 13c-12 3.33301 -21.667 6.83301 -29 10.5s-12.5 7.66699 -15.5 12s-4.5 10.166 -4.5 17.499c0 13.333 4.83301 22 14.5 26
s25.167 6 46.5 6c26 0 51.167 -3 75.5 -9s46.166 -13.333 65.499 -22l26 101c-23.333 11.333 -48.833 20 -76.5 26s-59.834 9 -96.501 9c-62 0 -110 -12.5 -144 -37.5s-51 -65.167 -51 -120.5c0 -21.333 3 -40.166 9 -56.499s16.167 -30.833 30.5 -43.5s33.5 -24 57.5 -34
s54 -19.333 90 -28c24 -6 40.5 -12 49.5 -18s13.5 -14.667 13.5 -26c0 -14 -5 -24 -15 -30s-25.667 -9 -47 -9c-25.333 0 -50.833 3.16699 -76.5 9.5s-51.5 14.833 -77.5 25.5l-30 -102c28 -11.333 58.5 -20.5 91.5 -27.5s64.5 -10.5 94.5 -10.5
c63.333 0 112.5 13.833 147.5 41.5s52.5 70.167 52.5 127.5zM146.001 547.999h139l93 152h-182z" />
    <glyph glyph-name="Scircumflex" unicode="&#x15c;" horiz-adv-x="571" 
d="M541 197c0 32.667 -4.8291 60.168 -14.4961 82.501s-23.834 41.166 -42.501 56.499s-41.667 28.166 -69 38.499s-59 19.833 -95 28.5c-26.667 6 -48.834 11.667 -66.501 17s-31.834 11 -42.501 17s-18.334 13 -23.001 21s-7 18.333 -7 31c0 28 9 46.667 27 56
s45.333 14 82 14c35.333 0 70.5 -4.16699 105.5 -12.5s66.833 -18.833 95.5 -31.5l26 116c-34 15.333 -69.167 27 -105.5 35s-77.5 12 -123.5 12c-37.333 0 -71.333 -3.33301 -102 -10s-57.334 -17.834 -80.001 -33.501s-40.167 -36.667 -52.5 -63
s-18.5 -59.166 -18.5 -98.499c0 -31.333 5 -58.333 15 -81s24.667 -42 44 -58s43 -29.167 71 -39.5s60.333 -19.166 97 -26.499c24.667 -5.33301 45.5 -10.333 62.5 -15s30.833 -10.334 41.5 -17.001s18.167 -14.5 22.5 -23.5s6.5 -19.833 6.5 -32.5
c0 -27.333 -10.667 -46.166 -32 -56.499s-50.333 -15.5 -87 -15.5c-32 0 -66.167 4.33301 -102.5 13s-71.5 19.667 -105.5 33l-31 -117c35.333 -14.667 74.333 -26.5 117 -35.5s83.667 -13.5 123 -13.5c84.667 0 149.834 18.167 195.501 54.5s68.5 87.833 68.5 154.5z
M357.004 858.001h-134l-116 -132h135l48 56l49 -56h135z" />
    <glyph glyph-name="scircumflex" unicode="&#x15d;" horiz-adv-x="445" 
d="M420 159c0 22.667 -3.49902 41.833 -10.499 57.5s-17.167 29.167 -30.5 40.5s-29.666 20.833 -48.999 28.5s-41.333 15.167 -66 22.5l-45 13c-12 3.33301 -21.667 6.83301 -29 10.5s-12.5 7.66699 -15.5 12s-4.5 10.166 -4.5 17.499c0 13.333 4.83301 22 14.5 26
s25.167 6 46.5 6c26 0 51.167 -3 75.5 -9s46.166 -13.333 65.499 -22l26 101c-23.333 11.333 -48.833 20 -76.5 26s-59.834 9 -96.501 9c-62 0 -110 -12.5 -144 -37.5s-51 -65.167 -51 -120.5c0 -21.333 3 -40.166 9 -56.499s16.167 -30.833 30.5 -43.5s33.5 -24 57.5 -34
s54 -19.333 90 -28c24 -6 40.5 -12 49.5 -18s13.5 -14.667 13.5 -26c0 -14 -5 -24 -15 -30s-25.667 -9 -47 -9c-25.333 0 -50.833 3.16699 -76.5 9.5s-51.5 14.833 -77.5 25.5l-30 -102c28 -11.333 58.5 -20.5 91.5 -27.5s64.5 -10.5 94.5 -10.5
c63.333 0 112.5 13.833 147.5 41.5s52.5 70.167 52.5 127.5zM293.001 699.999h-138l-106 -152h129l46 71l46 -71h129z" />
    <glyph glyph-name="Scedilla" unicode="&#x15e;" horiz-adv-x="571" 
d="M401 -104c0 24.667 -8.82812 41.0039 -26.4951 49.0039s-42.5 12.667 -74.5 14l5 30c36 2.66699 68.5 9.16699 97.5 19.5s53.833 24.166 74.5 41.499s36.5 38.333 47.5 63s16.5 52.667 16.5 84c0 32.667 -4.83301 60.167 -14.5 82.5s-23.834 41.166 -42.501 56.499
s-41.667 28.166 -69 38.499s-59 19.833 -95 28.5c-26.667 6 -48.834 11.667 -66.501 17s-31.834 11 -42.501 17s-18.334 13 -23.001 21s-7 18.333 -7 31c0 28 9 46.667 27 56s45.333 14 82 14c35.333 0 70.5 -4.16699 105.5 -12.5s66.833 -18.833 95.5 -31.5l26 116
c-34 15.333 -69.167 27 -105.5 35s-77.5 12 -123.5 12c-37.333 0 -71.333 -3.33301 -102 -10s-57.334 -17.834 -80.001 -33.501s-40.167 -36.667 -52.5 -63s-18.5 -59.166 -18.5 -98.499c0 -31.333 5 -58.333 15 -81s24.667 -42 44 -58s43 -29.167 71 -39.5
s60.333 -19.166 97 -26.499c24.667 -5.33301 45.5 -10.333 62.5 -15s30.833 -10.334 41.5 -17.001s18.167 -14.5 22.5 -23.5s6.5 -19.833 6.5 -32.5c0 -27.333 -10.667 -46.166 -32 -56.499s-50.333 -15.5 -87 -15.5c-32 0 -66.167 4.33301 -102.5 13
s-71.5 19.667 -105.5 33l-31 -117c30 -12.667 62.833 -23 98.5 -31s70.834 -13.333 105.501 -16l-17 -81c19.333 -0.666992 33.833 -1.83398 43.5 -3.50098s14.5 -6.83398 14.5 -15.501c0 -5.33301 -2 -9.5 -6 -12.5s-9.33301 -5.33301 -16 -7
s-13.834 -2.83398 -21.501 -3.50098l-22.5 -2l4 -53c24.667 0 48 1.5 70 4.5s41.167 7.83301 57.5 14.5s29.333 15.334 39 26.001s14.5 23.667 14.5 39z" />
    <glyph glyph-name="Scedilla" unicode="&#xf6c1;" horiz-adv-x="571" 
d="M401 -104c0 24.667 -8.82812 41.0039 -26.4951 49.0039s-42.5 12.667 -74.5 14l5 30c36 2.66699 68.5 9.16699 97.5 19.5s53.833 24.166 74.5 41.499s36.5 38.333 47.5 63s16.5 52.667 16.5 84c0 32.667 -4.83301 60.167 -14.5 82.5s-23.834 41.166 -42.501 56.499
s-41.667 28.166 -69 38.499s-59 19.833 -95 28.5c-26.667 6 -48.834 11.667 -66.501 17s-31.834 11 -42.501 17s-18.334 13 -23.001 21s-7 18.333 -7 31c0 28 9 46.667 27 56s45.333 14 82 14c35.333 0 70.5 -4.16699 105.5 -12.5s66.833 -18.833 95.5 -31.5l26 116
c-34 15.333 -69.167 27 -105.5 35s-77.5 12 -123.5 12c-37.333 0 -71.333 -3.33301 -102 -10s-57.334 -17.834 -80.001 -33.501s-40.167 -36.667 -52.5 -63s-18.5 -59.166 -18.5 -98.499c0 -31.333 5 -58.333 15 -81s24.667 -42 44 -58s43 -29.167 71 -39.5
s60.333 -19.166 97 -26.499c24.667 -5.33301 45.5 -10.333 62.5 -15s30.833 -10.334 41.5 -17.001s18.167 -14.5 22.5 -23.5s6.5 -19.833 6.5 -32.5c0 -27.333 -10.667 -46.166 -32 -56.499s-50.333 -15.5 -87 -15.5c-32 0 -66.167 4.33301 -102.5 13
s-71.5 19.667 -105.5 33l-31 -117c30 -12.667 62.833 -23 98.5 -31s70.834 -13.333 105.501 -16l-17 -81c19.333 -0.666992 33.833 -1.83398 43.5 -3.50098s14.5 -6.83398 14.5 -15.501c0 -5.33301 -2 -9.5 -6 -12.5s-9.33301 -5.33301 -16 -7
s-13.834 -2.83398 -21.501 -3.50098l-22.5 -2l4 -53c24.667 0 48 1.5 70 4.5s41.167 7.83301 57.5 14.5s29.333 15.334 39 26.001s14.5 23.667 14.5 39z" />
    <glyph glyph-name="scedilla" unicode="&#x15f;" horiz-adv-x="445" 
d="M337 -104c0 24.667 -8.83105 41.002 -26.498 49.002s-42.5 12.667 -74.5 14l5 32c54 3.33301 97.333 18.666 130 45.999s49 68 49 122c0 22.667 -3.5 41.834 -10.5 57.501s-17.167 29.167 -30.5 40.5s-29.666 20.833 -48.999 28.5s-41.333 15.167 -66 22.5l-45 13
c-12 3.33301 -21.667 6.83301 -29 10.5s-12.5 7.66699 -15.5 12s-4.5 10.166 -4.5 17.499c0 13.333 4.83301 22 14.5 26s25.167 6 46.5 6c26 0 51.167 -3 75.5 -9s46.166 -13.333 65.499 -22l26 101c-23.333 11.333 -48.833 20 -76.5 26s-59.834 9 -96.501 9
c-62 0 -110 -12.5 -144 -37.5s-51 -65.167 -51 -120.5c0 -21.333 3 -40.166 9 -56.499s16.167 -30.833 30.5 -43.5s33.5 -24 57.5 -34s54 -19.333 90 -28c24 -6 40.5 -12 49.5 -18s13.5 -14.667 13.5 -26c0 -14 -5 -24 -15 -30s-25.667 -9 -47 -9
c-25.333 0 -50.833 3.16699 -76.5 9.5s-51.5 14.833 -77.5 25.5l-30 -102c21.333 -9.33301 44.5 -17 69.5 -23s49.833 -10.333 74.5 -13l-18 -83c19.333 -0.666992 33.833 -1.83398 43.5 -3.50098s14.5 -6.83398 14.5 -15.501c0 -5.33301 -2 -9.5 -6 -12.5
s-9.33301 -5.33301 -16 -7s-13.834 -2.83398 -21.501 -3.50098l-22.5 -2l4 -53c24.667 0 48 1.5 70 4.5s41.167 7.83301 57.5 14.5s29.333 15.334 39 26.001s14.5 23.667 14.5 39z" />
    <glyph glyph-name="scedilla" unicode="&#xf6c2;" horiz-adv-x="445" 
d="M337 -104c0 24.667 -8.83105 41.002 -26.498 49.002s-42.5 12.667 -74.5 14l5 32c54 3.33301 97.333 18.666 130 45.999s49 68 49 122c0 22.667 -3.5 41.834 -10.5 57.501s-17.167 29.167 -30.5 40.5s-29.666 20.833 -48.999 28.5s-41.333 15.167 -66 22.5l-45 13
c-12 3.33301 -21.667 6.83301 -29 10.5s-12.5 7.66699 -15.5 12s-4.5 10.166 -4.5 17.499c0 13.333 4.83301 22 14.5 26s25.167 6 46.5 6c26 0 51.167 -3 75.5 -9s46.166 -13.333 65.499 -22l26 101c-23.333 11.333 -48.833 20 -76.5 26s-59.834 9 -96.501 9
c-62 0 -110 -12.5 -144 -37.5s-51 -65.167 -51 -120.5c0 -21.333 3 -40.166 9 -56.499s16.167 -30.833 30.5 -43.5s33.5 -24 57.5 -34s54 -19.333 90 -28c24 -6 40.5 -12 49.5 -18s13.5 -14.667 13.5 -26c0 -14 -5 -24 -15 -30s-25.667 -9 -47 -9
c-25.333 0 -50.833 3.16699 -76.5 9.5s-51.5 14.833 -77.5 25.5l-30 -102c21.333 -9.33301 44.5 -17 69.5 -23s49.833 -10.333 74.5 -13l-18 -83c19.333 -0.666992 33.833 -1.83398 43.5 -3.50098s14.5 -6.83398 14.5 -15.501c0 -5.33301 -2 -9.5 -6 -12.5
s-9.33301 -5.33301 -16 -7s-13.834 -2.83398 -21.501 -3.50098l-22.5 -2l4 -53c24.667 0 48 1.5 70 4.5s41.167 7.83301 57.5 14.5s29.333 15.334 39 26.001s14.5 23.667 14.5 39z" />
    <glyph glyph-name="Scaron" unicode="&#x160;" horiz-adv-x="571" 
d="M541 197c0 32.667 -4.8291 60.168 -14.4961 82.501s-23.834 41.166 -42.501 56.499s-41.667 28.166 -69 38.499s-59 19.833 -95 28.5c-26.667 6 -48.834 11.667 -66.501 17s-31.834 11 -42.501 17s-18.334 13 -23.001 21s-7 18.333 -7 31c0 28 9 46.667 27 56
s45.333 14 82 14c35.333 0 70.5 -4.16699 105.5 -12.5s66.833 -18.833 95.5 -31.5l26 116c-34 15.333 -69.167 27 -105.5 35s-77.5 12 -123.5 12c-37.333 0 -71.333 -3.33301 -102 -10s-57.334 -17.834 -80.001 -33.501s-40.167 -36.667 -52.5 -63
s-18.5 -59.166 -18.5 -98.499c0 -31.333 5 -58.333 15 -81s24.667 -42 44 -58s43 -29.167 71 -39.5s60.333 -19.166 97 -26.499c24.667 -5.33301 45.5 -10.333 62.5 -15s30.833 -10.334 41.5 -17.001s18.167 -14.5 22.5 -23.5s6.5 -19.833 6.5 -32.5
c0 -27.333 -10.667 -46.166 -32 -56.499s-50.333 -15.5 -87 -15.5c-32 0 -66.167 4.33301 -102.5 13s-71.5 19.667 -105.5 33l-31 -117c35.333 -14.667 74.333 -26.5 117 -35.5s83.667 -13.5 123 -13.5c84.667 0 149.834 18.167 195.501 54.5s68.5 87.833 68.5 154.5z
M468.004 858.001h-135l-49 -56l-48 56h-135l116 -132h134z" />
    <glyph glyph-name="scaron" unicode="&#x161;" horiz-adv-x="445" 
d="M420 159c0 22.667 -3.49902 41.833 -10.499 57.5s-17.167 29.167 -30.5 40.5s-29.666 20.833 -48.999 28.5s-41.333 15.167 -66 22.5l-45 13c-12 3.33301 -21.667 6.83301 -29 10.5s-12.5 7.66699 -15.5 12s-4.5 10.166 -4.5 17.499c0 13.333 4.83301 22 14.5 26
s25.167 6 46.5 6c26 0 51.167 -3 75.5 -9s46.166 -13.333 65.499 -22l26 101c-23.333 11.333 -48.833 20 -76.5 26s-59.834 9 -96.501 9c-62 0 -110 -12.5 -144 -37.5s-51 -65.167 -51 -120.5c0 -21.333 3 -40.166 9 -56.499s16.167 -30.833 30.5 -43.5s33.5 -24 57.5 -34
s54 -19.333 90 -28c24 -6 40.5 -12 49.5 -18s13.5 -14.667 13.5 -26c0 -14 -5 -24 -15 -30s-25.667 -9 -47 -9c-25.333 0 -50.833 3.16699 -76.5 9.5s-51.5 14.833 -77.5 25.5l-30 -102c28 -11.333 58.5 -20.5 91.5 -27.5s64.5 -10.5 94.5 -10.5
c63.333 0 112.5 13.833 147.5 41.5s52.5 70.167 52.5 127.5zM397.001 699.999h-129l-46 -71l-46 71h-129l106 -152h138z" />
    <glyph glyph-name="Tcommaaccent" unicode="&#x162;" horiz-adv-x="562" 
d="M540 540v126h-518v-126h186v-540h146v540h186zM363 -70h-163l-31 -180h120z" />
    <glyph glyph-name="Tcommaaccent" unicode="&#x21a;" horiz-adv-x="562" 
d="M540 540v126h-518v-126h186v-540h146v540h186zM363 -70h-163l-31 -180h120z" />
    <glyph glyph-name="tcommaaccent" unicode="&#x163;" horiz-adv-x="347" 
d="M318 3l-3.00195 105c-15.333 -3.33301 -29.666 -5 -42.999 -5c-17.333 0 -29.166 3.33301 -35.499 10s-9.5 17 -9.5 31v224h95v120h-95v124h-142v-124h-65v-120h65v-238c0 -48 11.167 -83.333 33.5 -106s58.166 -34 107.499 -34c17.333 0 33.833 1.33301 49.5 4
s29.834 5.66699 42.501 9zM289.998 -70h-163l-31 -180h120z" />
    <glyph glyph-name="tcommaaccent" unicode="&#x21b;" horiz-adv-x="347" 
d="M318 3l-3.00195 105c-15.333 -3.33301 -29.666 -5 -42.999 -5c-17.333 0 -29.166 3.33301 -35.499 10s-9.5 17 -9.5 31v224h95v120h-95v124h-142v-124h-65v-120h65v-238c0 -48 11.167 -83.333 33.5 -106s58.166 -34 107.499 -34c17.333 0 33.833 1.33301 49.5 4
s29.834 5.66699 42.501 9zM289.998 -70h-163l-31 -180h120z" />
    <glyph glyph-name="Tcaron" unicode="&#x164;" horiz-adv-x="562" 
d="M540 540v126h-518v-126h186v-540h146v540h186zM465 858h-135l-49 -56l-48 56h-135l116 -132h134z" />
    <glyph glyph-name="tcaron" unicode="&#x165;" horiz-adv-x="389" 
d="M378 556h-107l23 190h155zM318 3c-12.667 -3.33301 -26.832 -6.33301 -42.499 -9s-32.167 -4 -49.5 -4c-49.333 0 -85.166 11.333 -107.499 34s-33.5 58 -33.5 106v238h-65v120h65v124h142v-124h95v-120h-95v-224c0 -14 3.16699 -24.333 9.5 -31s18.166 -10 35.499 -10
c13.333 0 27.666 1.66699 42.999 5z" />
    <glyph glyph-name="Tbar" unicode="&#x166;" horiz-adv-x="562" 
d="M466 243v122h-112v175h186v126h-518v-126h186v-175h-112v-122h112v-243h146v243h112z" />
    <glyph glyph-name="tbar" unicode="&#x167;" horiz-adv-x="345" 
d="M20 188h64.998v-58c0 -48 11.167 -83.333 33.5 -106s58.166 -34 107.499 -34c17.333 0 33.833 1.33301 49.5 4s29.834 5.66699 42.501 9l-3 105c-15.333 -3.33301 -29.666 -5 -42.999 -5c-17.333 0 -29.166 3.33301 -35.499 10s-9.5 17 -9.5 31v44h77v116h-77v64h95v120
h-95v124h-142v-124h-65v-120h65v-64h-65v-116z" />
    <glyph glyph-name="Utilde" unicode="&#x168;" horiz-adv-x="688" 
d="M625 666h-146.002v-420c0 -44 -12.167 -77.333 -36.5 -100s-57.166 -34 -98.499 -34s-74.166 11.333 -98.499 34s-36.5 56 -36.5 100v420h-146v-412c0 -36 5.83301 -70.167 17.5 -102.5s29.167 -60.666 52.5 -84.999s52.5 -43.5 87.5 -57.5s76.167 -21 123.5 -21
s88.5 7 123.5 21s64.167 33.167 87.5 57.5s40.833 52.666 52.5 84.999s17.5 66.5 17.5 102.5v412zM456.998 878c-3.33301 -10 -7.5 -19.833 -12.5 -29.5s-14.167 -14.5 -27.5 -14.5c-8 0 -17.5 2.16699 -28.5 6.5s-22.667 9.33301 -35 15s-25.333 10.667 -39 15
s-26.834 6.5 -39.501 6.5c-35.333 0 -62 -9.83301 -80 -29.5s-32.667 -49.167 -44 -88.5l93 -33c4.66699 12 9.66699 22.5 15 31.5s14.666 13.5 27.999 13.5c9.33301 0 20.333 -2.33301 33 -7l40 -15c14 -5.33301 28 -10.333 42 -15s26.667 -7 38 -7
c16.667 0 30.834 3.33301 42.501 10s21.5 15.5 29.5 26.5s14.833 23.5 20.5 37.5s10.834 28.667 15.501 44z" />
    <glyph glyph-name="utilde" unicode="&#x169;" horiz-adv-x="553" 
d="M55 488v-330.999c0 -52.667 12 -93.667 36 -123s63.333 -44 118 -44c20 0 37.667 2.5 53 7.5s29 11.667 41 20s22.333 17.666 31 27.999s15.667 20.833 21 31.5v-77h138v488h-142v-268c0 -34 -6.83301 -60.5 -20.5 -79.5s-36.167 -28.5 -67.5 -28.5
c-22 0 -38.5 6 -49.5 18s-16.5 28.667 -16.5 50v308h-142zM391 700.001c-3.33301 -9.33301 -7.49805 -19 -12.498 -29s-14.167 -15 -27.5 -15c-8 0 -17 2.16699 -27 6.5s-20.833 9.33301 -32.5 15s-23.834 10.667 -36.501 15s-25 6.5 -37 6.5
c-33.333 0 -58.666 -9.66699 -75.999 -29s-32.333 -49 -45 -89l89 -33c4.66699 12 9.66699 22.5 15 31.5s14.666 13.5 27.999 13.5c9.33301 0 19.666 -2.33301 30.999 -7l35.5 -15c12.333 -5.33301 24.833 -10.333 37.5 -15s25 -7 37 -7c17.333 0 32.166 3.33301 44.499 10
s22.833 15.5 31.5 26.5s15.834 23.667 21.501 38s10.5 28.833 14.5 43.5z" />
    <glyph glyph-name="Umacron" unicode="&#x16a;" horiz-adv-x="688" 
d="M625 666h-146.002v-420c0 -44 -12.167 -77.333 -36.5 -100s-57.166 -34 -98.499 -34s-74.166 11.333 -98.499 34s-36.5 56 -36.5 100v420h-146v-412c0 -36 5.83301 -70.167 17.5 -102.5s29.167 -60.666 52.5 -84.999s52.5 -43.5 87.5 -57.5s76.167 -21 123.5 -21
s88.5 7 123.5 21s64.167 33.167 87.5 57.5s40.833 52.666 52.5 84.999s17.5 66.5 17.5 102.5v412zM519.998 733v110h-352v-110h352z" />
    <glyph glyph-name="umacron" unicode="&#x16b;" horiz-adv-x="553" 
d="M55 488v-330.999c0 -52.667 12 -93.667 36 -123s63.333 -44 118 -44c20 0 37.667 2.5 53 7.5s29 11.667 41 20s22.333 17.666 31 27.999s15.667 20.833 21 31.5v-77h138v488h-142v-268c0 -34 -6.83301 -60.5 -20.5 -79.5s-36.167 -28.5 -67.5 -28.5
c-22 0 -38.5 6 -49.5 18s-16.5 28.667 -16.5 50v308h-142zM439 562.001v108h-312v-108h312z" />
    <glyph glyph-name="Ubreve" unicode="&#x16c;" horiz-adv-x="688" 
d="M625 666h-146.002v-420c0 -44 -12.167 -77.333 -36.5 -100s-57.166 -34 -98.499 -34s-74.166 11.333 -98.499 34s-36.5 56 -36.5 100v420h-146v-412c0 -36 5.83301 -70.167 17.5 -102.5s29.167 -60.666 52.5 -84.999s52.5 -43.5 87.5 -57.5s76.167 -21 123.5 -21
s88.5 7 123.5 21s64.167 33.167 87.5 57.5s40.833 52.666 52.5 84.999s17.5 66.5 17.5 102.5v412zM405.998 858c0 -16 -5 -28.5 -15 -37.5s-25.667 -13.5 -47 -13.5s-37 4.5 -47 13.5s-15 21.5 -15 37.5h-111c0 -44.667 15.833 -77.834 47.5 -99.501s73.5 -32.5 125.5 -32.5
s93.833 10.833 125.5 32.5s47.5 54.834 47.5 99.501h-111z" />
    <glyph glyph-name="ubreve" unicode="&#x16d;" horiz-adv-x="553" 
d="M55 488v-330.999c0 -52.667 12 -93.667 36 -123s63.333 -44 118 -44c20 0 37.667 2.5 53 7.5s29 11.667 41 20s22.333 17.666 31 27.999s15.667 20.833 21 31.5v-77h138v488h-142v-268c0 -34 -6.83301 -60.5 -20.5 -79.5s-36.167 -28.5 -67.5 -28.5
c-22 0 -38.5 6 -49.5 18s-16.5 28.667 -16.5 50v308h-142zM446 695.001h-102.002c0 -20 -5.5 -35.667 -16.5 -47s-27.167 -17 -48.5 -17s-37.5 5.66699 -48.5 17s-16.5 27 -16.5 47h-102c0 -24 4.16699 -45 12.5 -63s19.833 -33.333 34.5 -46s32.334 -22.167 53.001 -28.5
s43 -9.5 67 -9.5s46.333 3.16699 67 9.5s38.334 15.833 53.001 28.5s26.167 28 34.5 46s12.5 39 12.5 63z" />
    <glyph glyph-name="Uring" unicode="&#x16e;" horiz-adv-x="688" 
d="M625 666h-146.002v-420c0 -44 -12.167 -77.333 -36.5 -100s-57.166 -34 -98.499 -34s-74.166 11.333 -98.499 34s-36.5 56 -36.5 100v420h-146v-412c0 -36 5.83301 -70.167 17.5 -102.5s29.167 -60.666 52.5 -84.999s52.5 -43.5 87.5 -57.5s76.167 -21 123.5 -21
s88.5 7 123.5 21s64.167 33.167 87.5 57.5s40.833 52.666 52.5 84.999s17.5 66.5 17.5 102.5v412zM446.998 816c0 24 -8.33301 45 -25 63s-42.667 27 -78 27s-61.333 -9 -78 -27s-25 -39 -25 -63s8.33301 -45 25 -63s42.667 -27 78 -27s61.333 9 78 27s25 39 25 63z
M302.998 816c0 12.667 3.66699 22.332 11 28.999s17.333 10 30 10c27.333 0 41 -13 41 -39s-13.667 -39 -41 -39c-12.667 0 -22.667 3.33301 -30 10s-11 16.334 -11 29.001z" />
    <glyph glyph-name="uring" unicode="&#x16f;" horiz-adv-x="553" 
d="M55 488v-330.999c0 -52.667 12 -93.667 36 -123s63.333 -44 118 -44c20 0 37.667 2.5 53 7.5s29 11.667 41 20s22.333 17.666 31 27.999s15.667 20.833 21 31.5v-77h138v488h-142v-268c0 -34 -6.83301 -60.5 -20.5 -79.5s-36.167 -28.5 -67.5 -28.5
c-22 0 -38.5 6 -49.5 18s-16.5 28.667 -16.5 50v308h-142zM382 638.001c0 24 -8.33301 45 -25 63s-42.667 27 -78 27s-61.333 -9 -78 -27s-25 -39 -25 -63s8.33301 -45 25 -63s42.667 -27 78 -27s61.333 9 78 27s25 39 25 63zM238 638.001
c0 12.667 3.66699 22.332 11 28.999s17.333 10 30 10c27.333 0 41 -13 41 -39s-13.667 -39 -41 -39c-12.667 0 -22.667 3.33301 -30 10s-11 16.334 -11 29.001z" />
    <glyph glyph-name="Uhungarumlaut" unicode="&#x170;" horiz-adv-x="688" 
d="M625 666h-146.002v-420c0 -44 -12.167 -77.333 -36.5 -100s-57.166 -34 -98.499 -34s-74.166 11.333 -98.499 34s-36.5 56 -36.5 100v420h-146v-412c0 -36 5.83301 -70.167 17.5 -102.5s29.167 -60.666 52.5 -84.999s52.5 -43.5 87.5 -57.5s76.167 -21 123.5 -21
s88.5 7 123.5 21s64.167 33.167 87.5 57.5s40.833 52.666 52.5 84.999s17.5 66.5 17.5 102.5v412zM589.998 858h-164l-50 -132h133zM371.998 858h-153l-38 -132h127z" />
    <glyph glyph-name="uhungarumlaut" unicode="&#x171;" horiz-adv-x="553" 
d="M55 488v-330.999c0 -52.667 12 -93.667 36 -123s63.333 -44 118 -44c20 0 37.667 2.5 53 7.5s29 11.667 41 20s22.333 17.666 31 27.999s15.667 20.833 21 31.5v-77h138v488h-142v-268c0 -34 -6.83301 -60.5 -20.5 -79.5s-36.167 -28.5 -67.5 -28.5
c-22 0 -38.5 6 -49.5 18s-16.5 28.667 -16.5 50v308h-142zM525 700.001h-164l-56 -152h133zM311 700.001h-153l-44 -152h127z" />
    <glyph glyph-name="Uogonek" unicode="&#x172;" horiz-adv-x="688" 
d="M625 666l-145.997 0.000976562v-420c0 -44 -12.167 -77.333 -36.5 -100s-57.166 -34 -98.499 -34s-74.166 11.333 -98.499 34s-36.5 56 -36.5 100v420h-146v-412c0 -36 5.66699 -69.833 17 -101.5s28.166 -59.5 50.499 -83.5s50.5 -43.333 84.5 -58
s74 -22.334 120 -23.001c-13.333 -9.33301 -25.5 -21.333 -36.5 -36s-16.5 -32.667 -16.5 -54c0 -25.333 8.33301 -46 25 -62s43 -24 79 -24c18 0 35.167 1.5 51.5 4.5s29.166 6.83301 38.499 11.5l-11 68c-4 -1.33301 -8.83301 -2.5 -14.5 -3.5s-11.5 -1.5 -17.5 -1.5
c-24 0 -36 10 -36 30c0 12 4.66699 23.5 14 34.5s20.666 21.5 33.999 31.5s27.166 19.333 41.499 28s26.5 16.667 36.5 24c33.333 24 58.666 54.333 75.999 91s26 78 26 124v412z" />
    <glyph glyph-name="uogonek" unicode="&#x173;" horiz-adv-x="553" 
d="M482 -104c-4 -1.33301 -8.83203 -2.5 -14.499 -3.5s-11.5 -1.5 -17.5 -1.5c-24 0 -36 10 -36 30c0 9.33301 2.66699 18 8 26s12 15.333 20 22s16.667 12.5 26 17.5l25 13.5v488h-142v-268c0 -34 -6.83301 -60.5 -20.5 -79.5s-36.167 -28.5 -67.5 -28.5
c-22 0 -38.5 6 -49.5 18s-16.5 28.667 -16.5 50v308h-142v-331c0 -52.667 12 -93.667 36 -123s63.333 -44 118 -44c20 0 37.667 2.5 53 7.5s29 11.667 41 20s22.333 17.666 31 27.999s15.667 20.833 21 31.5v-77c-15.333 -12 -28.5 -25.833 -39.5 -41.5
s-16.5 -35.5 -16.5 -59.5c0 -25.333 8.33301 -46.166 25 -62.499s43 -24.5 79 -24.5c18 0 35.167 1.5 51.5 4.5s29.166 6.83301 38.499 11.5z" />
    <glyph glyph-name="Wcircumflex" unicode="&#x174;" horiz-adv-x="890" 
d="M527 666h-162l-121 -428l-93 428h-147l171 -666h137l134 505l132 -505h137l171 666h-147l-93 -428zM512 858h-134l-116 -132h135l48 56l49 -56h135z" />
    <glyph glyph-name="wcircumflex" unicode="&#x175;" horiz-adv-x="742" 
d="M445 488h-148l-86 -324l-73 324h-140l138 -488h145l90 327l90 -327h145l138 488h-140l-73 -324zM440 700h-138l-106 -152h129l46 71l46 -71h129z" />
    <glyph glyph-name="Ycircumflex" unicode="&#x176;" 
d="M567 666h-154l-131 -278l-131 278h-154l212 -407v-259h146v259zM349 858h-134l-116 -132h135l48 56l49 -56h135z" />
    <glyph glyph-name="ycircumflex" unicode="&#x177;" horiz-adv-x="458" 
d="M232 151l-89 337h-149l167 -492l-53 -174h144l212 666h-149zM306 700h-138l-106 -152h129l46 71l46 -71h129z" />
    <glyph glyph-name="Ydieresis" unicode="&#x178;" 
d="M567 666h-154l-131 -278l-131 278h-154l212 -407v-259h146v259zM315 793c0 -20 6 -36.167 18 -48.5s29.667 -18.5 53 -18.5s41 6.16699 53 18.5s18 28.5 18 48.5s-6 36.167 -18 48.5s-29.667 18.5 -53 18.5s-41 -6.16699 -53 -18.5s-18 -28.5 -18 -48.5zM108 793
c0 -20 6 -36.167 18 -48.5s29.667 -18.5 53 -18.5s41 6.16699 53 18.5s18 28.5 18 48.5s-6 36.167 -18 48.5s-29.667 18.5 -53 18.5s-41 -6.16699 -53 -18.5s-18 -28.5 -18 -48.5z" />
    <glyph glyph-name="Zacute" unicode="&#x179;" horiz-adv-x="582" 
d="M542 0v126h-326l316 410v130h-478v-126h307l-316 -410v-130h497zM476 858h-194l-74 -132h141z" />
    <glyph glyph-name="zacute" unicode="&#x17a;" horiz-adv-x="463" 
d="M428 0v112h-218l215 264v112h-374v-112h198l-209 -264v-112h388zM168 548h139l93 152h-182z" />
    <glyph glyph-name="Zdotaccent" unicode="&#x17b;" horiz-adv-x="582" 
d="M542 0v126h-326l316 410v130h-478v-126h307l-316 -410v-130h497zM214 810c0 -22.667 7.66699 -42.334 23 -59.001s35.666 -25 60.999 -25s45.666 8.33301 60.999 25s23 36.334 23 59.001c0 23.333 -7.66699 43.166 -23 59.499s-35.666 24.5 -60.999 24.5
s-45.666 -8.16699 -60.999 -24.5s-23 -36.166 -23 -59.499z" />
    <glyph glyph-name="zdotaccent" unicode="&#x17c;" horiz-adv-x="463" 
d="M428 0v112h-218l215 264v112h-374v-112h198l-209 -264v-112h388zM163 632c0 -22.667 7.66699 -42.334 23 -59.001s35.666 -25 60.999 -25s45.666 8.33301 60.999 25s23 36.334 23 59.001c0 23.333 -7.66699 43.166 -23 59.499s-35.666 24.5 -60.999 24.5
s-45.666 -8.16699 -60.999 -24.5s-23 -36.166 -23 -59.499z" />
    <glyph glyph-name="Zcaron" unicode="&#x17d;" horiz-adv-x="582" 
d="M542 0v126h-326l316 410v130h-478v-126h307l-316 -410v-130h497zM484 858h-135l-49 -56l-48 56h-135l116 -132h134z" />
    <glyph glyph-name="zcaron" unicode="&#x17e;" horiz-adv-x="463" 
d="M428 0v112h-218l215 264v112h-374v-112h198l-209 -264v-112h388zM421 700h-129l-46 -71l-46 71h-129l106 -152h138z" />
    <glyph glyph-name="florin" unicode="&#x192;" horiz-adv-x="390" 
d="M108 342l-32.998 -376.001c-1.33301 -15.333 -5.66602 -26.5 -12.999 -33.5s-19.666 -10.5 -36.999 -10.5c-8.66699 0 -16.834 0.666992 -24.501 2s-15.834 3.33301 -24.501 6l-16 -102c12.667 -4 28 -7.66699 46 -11s37 -5 57 -5c44 0 79.5 12.167 106.5 36.5
s42.833 63.5 47.5 117.5l33 376h92v113h-82l6 70c1.33301 15.333 5.66602 26 12.999 32s18.666 9 33.999 9c13.333 0 25 -1.16699 35 -3.5s18.667 -4.83301 26 -7.5l16 101c-13.333 5.33301 -29.5 10 -48.5 14s-39.833 6 -62.5 6c-50 0 -87.333 -12.667 -112 -38
s-39 -62.666 -43 -111.999l-6 -71h-68v-113h58z" />
    <glyph glyph-name="Aringacute" unicode="&#x1fa;" horiz-adv-x="656" 
d="M461 950h-175l-22 -108h131zM431 724c0 24 -8.33301 45 -25 63s-42.667 27 -78 27s-61.333 -9 -78 -27s-25 -39 -25 -63c0 -23.333 7 -43 21 -59l-241 -665h148l48 147h254l48 -147h148l-242 665c7.33301 8 12.833 17 16.5 27s5.5 20.667 5.5 32zM287 724
c0 12.667 3.66699 22.332 11 28.999s17.333 10 30 10c27.333 0 41 -13 41 -39s-13.667 -39 -41 -39c-12.667 0 -22.667 3.33301 -30 10s-11 16.334 -11 29.001zM328 534.998l87 -266h-174z" />
    <glyph glyph-name="aringacute" unicode="&#x1fb;" horiz-adv-x="539" 
d="M352 764h-131l26 110h175zM175 635c0 24 8.33301 45 25 63s42.667 27 78 27s61.333 -9 78 -27s25 -39 25 -63s-8.33301 -45 -25 -63s-42.667 -27 -78 -27s-61.333 9 -78 27s-25 39 -25 63zM237 635c0 -12.667 3.66699 -22.332 11 -28.999s17.333 -10 30 -10
c27.333 0 41 13 41 39s-13.667 39 -41 39c-12.667 0 -22.667 -3.33301 -30 -10s-11 -16.334 -11 -29.001zM351 0.00195312l0.00195312 60.002c-16 -21.333 -38 -38.333 -66 -51s-59 -19 -93 -19c-48 0 -85.333 13 -112 39s-40 62 -40 108c0 28.667 4.5 53 13.5 73
s21.167 36.167 36.5 48.5s33.666 21.166 54.999 26.499s44.666 8 69.999 8h129v23c0 41.333 -30.333 62 -91 62c-32 0 -60.333 -3.33301 -85 -10s-48 -15.334 -70 -26.001l-24 110c27.333 14 58 25.167 92 33.5s69.333 12.5 106 12.5c70.667 0 124 -14.167 160 -42.5
s54 -72.833 54 -133.5v-322h-135zM344.002 195.004h-103c-40.667 0 -61 -17.667 -61 -53c0 -36 21.333 -54 64 -54c30 0 54.167 7.16699 72.5 21.5s27.5 34.833 27.5 61.5v24z" />
    <glyph glyph-name="AEacute" unicode="&#x1fc;" horiz-adv-x="880" 
d="M503 0h332v126h-237l-48 152h265v126h-305l-43 136h368v126h-588l-242 -666h148l49 149h252zM328 545l87 -276h-174zM548 858h-194l-74 -132h141z" />
    <glyph glyph-name="aeacute" unicode="&#x1fd;" horiz-adv-x="826" 
d="M798 192l-0.000976562 65.999c0 36 -4 68.667 -12 98s-20.5 54.5 -37.5 75.5s-38.667 37.333 -65 49s-57.833 17.5 -94.5 17.5c-42 0 -75.833 -6 -101.5 -18s-47.167 -28.667 -64.5 -50c-17.333 23.333 -39.166 40.5 -65.499 51.5s-58.5 16.5 -96.5 16.5
s-72 -4.16699 -102 -12.5s-56.333 -18.833 -79 -31.5l24 -106c23.333 10 46.666 17.5 69.999 22.5s50.333 7.5 81 7.5c30 0 53.333 -6.16699 70 -18.5s25 -31.166 25 -56.499v-12h-135c-56.667 0 -100 -12 -130 -36s-45 -61 -45 -111c0 -48.667 16.667 -86.5 50 -113.5
s79.333 -40.5 138 -40.5c42 0 79.833 7.33301 113.5 22s60.834 34.667 81.501 60c15.333 -23.333 39.333 -42.833 72 -58.5s69.667 -23.5 111 -23.5c36 0 69.667 3.83301 101 11.5s60.666 18.167 87.999 31.5l-24 96c-22.667 -10 -46.167 -18.167 -70.5 -24.5
s-50.166 -9.5 -77.499 -9.5c-40 0 -70 8 -90 24s-32.667 40.333 -38 73h303zM349.999 181.999c0 -34 -9 -58.5 -27 -73.5s-43.667 -22.5 -77 -22.5c-21.333 0 -38.333 4.83301 -51 14.5s-19 23.167 -19 40.5c0 34 19.667 51 59 51h115v-10zM586.999 400.999
c28 0 48.001 -8.66699 60.001 -26s18 -41 18 -71v-13h-171c3.33301 36 12.166 63.333 26.499 82s36.5 28 66.5 28zM338 547.999h139l93 152h-182z" />
    <glyph glyph-name="Oslashacute" unicode="&#x1fe;" horiz-adv-x="698" 
d="M523 858h-194l-74 -132h141zM30 333c0 -68.667 12.167 -129.5 36.5 -182.5s61.833 -93.833 112.5 -122.5l-45 -112h96l32 81c26.667 -6 55.667 -9 87 -9c54 0 101 8.66699 141 26s73.167 41.333 99.5 72s46 67.167 59 109.5s19.5 88.166 19.5 137.499
c0 68 -12.333 128.5 -37 181.5s-62 93.833 -112 122.5l46 113h-96l-33 -81c-27.333 6 -56.333 9 -87 9c-54 0 -101 -8.66699 -141 -26s-73.167 -41.333 -99.5 -72s-46 -67.167 -59 -109.5s-19.5 -88.166 -19.5 -137.499zM176 333c0 32.667 3.33301 62.5 10 89.5
s17 50.167 31 69.5s31.833 34.5 53.5 45.5s47.834 16.5 78.501 16.5c15.333 0 28.333 -1.33301 39 -4l-158 -393c-18.667 19.333 -32.334 44 -41.001 74s-13 64 -13 102zM349 112c-14 0 -27 1.00098 -39 3.00098l158 393c18.667 -19.333 32.334 -44 41.001 -74
s13 -63.667 13 -101c0 -32.667 -3.33301 -62.5 -10 -89.5s-17 -50.333 -31 -70s-31.833 -34.834 -53.5 -45.501s-47.834 -16 -78.501 -16z" />
    <glyph glyph-name="oslashacute" unicode="&#x1ff;" horiz-adv-x="526" 
d="M168 548h139l93 152h-182zM501 244c0 50.667 -9.33203 95.3311 -27.999 133.998s-46.667 68.334 -84 89.001l43 105h-70l-33 -81c-10.667 2 -21.334 3.66699 -32.001 5s-22 2 -34 2c-39.333 0 -73.833 -6.33301 -103.5 -19s-54.5 -30.167 -74.5 -52.5
s-35 -49.166 -45 -80.499s-15 -65.333 -15 -102c0 -50.667 9.33301 -95.5 28 -134.5s46.667 -68.833 84 -89.5l-42 -104h70l33 81c10 -2 20.333 -3.66699 31 -5s22 -2 34 -2c39.333 0 73.833 6.33301 103.5 19s54.5 30.167 74.5 52.5s35 49 45 80s15 65.167 15 102.5z
M167.001 243.997c0 46 7.5 81 22.5 105s39.5 36 73.5 36c4 0 7.83301 -0.166992 11.5 -0.5s7.16699 -0.833008 10.5 -1.5l-98 -241c-13.333 22.667 -20 56.667 -20 102zM359.001 243.997c0 -46 -7.50098 -81 -22.501 -105s-39.5 -36 -73.5 -36
c-4 0 -7.66699 0.166992 -11 0.5s-6.66602 0.833008 -9.99902 1.5l97 239c13.333 -22 20 -55.333 20 -100z" />
    <glyph glyph-name="Scommaaccent" unicode="&#x218;" horiz-adv-x="571" 
d="M541 197c0 32.667 -4.8291 60.168 -14.4961 82.501s-23.834 41.166 -42.501 56.499s-41.667 28.166 -69 38.499s-59 19.833 -95 28.5c-26.667 6 -48.834 11.667 -66.501 17s-31.834 11 -42.501 17s-18.334 13 -23.001 21s-7 18.333 -7 31c0 28 9 46.667 27 56
s45.333 14 82 14c35.333 0 70.5 -4.16699 105.5 -12.5s66.833 -18.833 95.5 -31.5l26 116c-34 15.333 -69.167 27 -105.5 35s-77.5 12 -123.5 12c-37.333 0 -71.333 -3.33301 -102 -10s-57.334 -17.834 -80.001 -33.501s-40.167 -36.667 -52.5 -63
s-18.5 -59.166 -18.5 -98.499c0 -31.333 5 -58.333 15 -81s24.667 -42 44 -58s43 -29.167 71 -39.5s60.333 -19.166 97 -26.499c24.667 -5.33301 45.5 -10.333 62.5 -15s30.833 -10.334 41.5 -17.001s18.167 -14.5 22.5 -23.5s6.5 -19.833 6.5 -32.5
c0 -27.333 -10.667 -46.166 -32 -56.499s-50.333 -15.5 -87 -15.5c-32 0 -66.167 4.33301 -102.5 13s-71.5 19.667 -105.5 33l-31 -117c35.333 -14.667 74.333 -26.5 117 -35.5s83.667 -13.5 123 -13.5c84.667 0 149.834 18.167 195.501 54.5s68.5 87.833 68.5 154.5z
M373.004 -69.999h-163l-31 -180h120z" />
    <glyph glyph-name="scommaaccent" unicode="&#x219;" horiz-adv-x="445" 
d="M420 159c0 22.667 -3.49902 41.833 -10.499 57.5s-17.167 29.167 -30.5 40.5s-29.666 20.833 -48.999 28.5s-41.333 15.167 -66 22.5l-45 13c-12 3.33301 -21.667 6.83301 -29 10.5s-12.5 7.66699 -15.5 12s-4.5 10.166 -4.5 17.499c0 13.333 4.83301 22 14.5 26
s25.167 6 46.5 6c26 0 51.167 -3 75.5 -9s46.166 -13.333 65.499 -22l26 101c-23.333 11.333 -48.833 20 -76.5 26s-59.834 9 -96.501 9c-62 0 -110 -12.5 -144 -37.5s-51 -65.167 -51 -120.5c0 -21.333 3 -40.166 9 -56.499s16.167 -30.833 30.5 -43.5s33.5 -24 57.5 -34
s54 -19.333 90 -28c24 -6 40.5 -12 49.5 -18s13.5 -14.667 13.5 -26c0 -14 -5 -24 -15 -30s-25.667 -9 -47 -9c-25.333 0 -50.833 3.16699 -76.5 9.5s-51.5 14.833 -77.5 25.5l-30 -102c28 -11.333 58.5 -20.5 91.5 -27.5s64.5 -10.5 94.5 -10.5
c63.333 0 112.5 13.833 147.5 41.5s52.5 70.167 52.5 127.5zM310.001 -70.001h-163l-31 -180h120z" />
    <glyph glyph-name="circumflex" unicode="&#x2c6;" horiz-adv-x="480" 
d="M309 700h-138l-106 -152h129l46 71l46 -71h129z" />
    <glyph glyph-name="caron" unicode="&#x2c7;" horiz-adv-x="480" 
d="M415 700h-129l-46 -71l-46 71h-129l106 -152h138z" />
    <glyph glyph-name="breve" unicode="&#x2d8;" horiz-adv-x="464" 
d="M399 695h-102.002c0 -20 -5.5 -35.667 -16.5 -47s-27.167 -17 -48.5 -17s-37.5 5.66699 -48.5 17s-16.5 27 -16.5 47h-102c0 -24 4.16699 -45 12.5 -63s19.833 -33.333 34.5 -46s32.334 -22.167 53.001 -28.5s43 -9.5 67 -9.5s46.333 3.16699 67 9.5
s38.334 15.833 53.001 28.5s26.167 28 34.5 46s12.5 39 12.5 63z" />
    <glyph glyph-name="dotaccent" unicode="&#x2d9;" horiz-adv-x="298" 
d="M65 623c0 -22.667 7.66699 -42.334 23 -59.001s35.666 -25 60.999 -25s45.666 8.33301 60.999 25s23 36.334 23 59.001c0 23.333 -7.66699 43.166 -23 59.499s-35.666 24.5 -60.999 24.5s-45.666 -8.16699 -60.999 -24.5s-23 -36.166 -23 -59.499z" />
    <glyph glyph-name="ring" unicode="&#x2da;" horiz-adv-x="336" 
d="M271 638c0 24 -8.33301 45 -25 63s-42.667 27 -78 27s-61.333 -9 -78 -27s-25 -39 -25 -63s8.33301 -45 25 -63s42.667 -27 78 -27s61.333 9 78 27s25 39 25 63zM127 638c0 12.667 3.66699 22.332 11 28.999s17.333 10 30 10c27.333 0 41 -13 41 -39s-13.667 -39 -41 -39
c-12.667 0 -22.667 3.33301 -30 10s-11 16.334 -11 29.001z" />
    <glyph glyph-name="ogonek" unicode="&#x2db;" horiz-adv-x="324" 
d="M248 -104c-4 -1.33301 -8.83203 -2.50098 -14.499 -3.50098s-11.5 -1.5 -17.5 -1.5c-24 0 -36 10 -36 30c0 9.33301 2.66699 18 8 26s12 15.333 20 22s16.667 12.5 26 17.5l25 13.5h-135c-15.333 -10.667 -29 -24.167 -41 -40.5s-18 -36.5 -18 -60.5
c0 -25.333 8.33301 -46.166 25 -62.499s43 -24.5 79 -24.5c18 0 35.167 1.5 51.5 4.5s29.166 6.83301 38.499 11.5z" />
    <glyph glyph-name="tilde" unicode="&#x2dc;" horiz-adv-x="515" 
d="M359 700c-3.33301 -9.33301 -7.49805 -19 -12.498 -29s-14.167 -15 -27.5 -15c-8 0 -17 2.16699 -27 6.5s-20.833 9.33301 -32.5 15s-23.834 10.667 -36.501 15s-25 6.5 -37 6.5c-33.333 0 -58.666 -9.66699 -75.999 -29s-32.333 -49 -45 -89l89 -33
c4.66699 12 9.66699 22.5 15 31.5s14.666 13.5 27.999 13.5c9.33301 0 19.666 -2.33301 30.999 -7l35.5 -15c12.333 -5.33301 24.833 -10.333 37.5 -15s25 -7 37 -7c17.333 0 32.166 3.33301 44.499 10s22.833 15.5 31.5 26.5s15.834 23.667 21.501 38
s10.5 28.833 14.5 43.5z" />
    <glyph glyph-name="hungarumlaut" unicode="&#x2dd;" horiz-adv-x="541" 
d="M476 700h-164l-56 -152h133zM262 700h-153l-44 -152h127z" />
    <glyph glyph-name="uni0312" unicode="&#x312;" horiz-adv-x="328" 
d="M65 548h168l30 152h-133z" />
    <glyph glyph-name="uni0315" unicode="&#x315;" horiz-adv-x="330" 
d="M265 666h-166l-34 -229h110z" />
    <glyph glyph-name="uni0326" unicode="&#x326;" horiz-adv-x="324" 
d="M259 -70h-163l-31 -180h120z" />
    <glyph glyph-name="uni037E" unicode="&#x37e;" horiz-adv-x="311" 
d="M82 356c0 -25.333 8.16699 -46 24.5 -62s37.166 -24 62.499 -24s46.166 8 62.499 24s24.5 36.667 24.5 62s-8.16699 46 -24.5 62s-37.166 24 -62.499 24s-46.166 -8 -62.499 -24s-24.5 -36.667 -24.5 -62zM25 -150h112l121 296h-169z" />
    <glyph glyph-name="tonos" unicode="&#x384;" horiz-adv-x="342" 
d="M65 548h130l82 152h-182z" />
    <glyph glyph-name="dieresistonos" unicode="&#x385;" horiz-adv-x="555" 
d="M128 554c20.667 0 36.5 6 47.5 18s16.5 26.667 16.5 44s-5.5 32 -16.5 44s-26.833 18 -47.5 18c-20 0 -35.5 -6 -46.5 -18s-16.5 -26.667 -16.5 -44s5.5 -32 16.5 -44s26.5 -18 46.5 -18zM211 548h87l75 173h-136zM427 554c20 0 35.5 6 46.5 18s16.5 26.667 16.5 44
s-5.5 32 -16.5 44s-26.5 18 -46.5 18c-20.667 0 -36.5 -6 -47.5 -18s-16.5 -26.667 -16.5 -44s5.5 -32 16.5 -44s26.833 -18 47.5 -18z" />
    <glyph glyph-name="Alphatonos" unicode="&#x386;" horiz-adv-x="656" 
d="M5 0h148l48 147h254l48 -147h148l-242 666h-162zM241 269l87 266l87 -266h-174zM-14 515h130l82 152h-182z" />
    <glyph glyph-name="anoteleia" unicode="&#x387;" horiz-adv-x="276" 
d="M55 273c0 -24.667 7.66699 -44.5 23 -59.5s35.333 -22.5 60 -22.5s44.667 7.5 60 22.5s23 34.833 23 59.5s-7.66699 44.5 -23 59.5s-35.333 22.5 -60 22.5s-44.667 -7.5 -60 -22.5s-23 -34.833 -23 -59.5z" />
    <glyph glyph-name="Epsilontonos" unicode="&#x388;" horiz-adv-x="568" 
d="M65 0h458v126h-312v152h292v126h-292v136h312v126h-458v-666zM-185 515h130l82 152h-182z" />
    <glyph glyph-name="Etatonos" unicode="&#x389;" horiz-adv-x="688" 
d="M65 0h146v271h266v-271h146v666h-146v-265h-266v265h-146v-666zM-186 515h130l82 152h-182z" />
    <glyph glyph-name="Iotatonos" unicode="&#x38a;" horiz-adv-x="286" 
d="M70 0h146v666h-146v-666zM-186 515h130l82 152h-182z" />
    <glyph glyph-name="Omicrontonos" unicode="&#x38c;" horiz-adv-x="698" 
d="M349 -12c54 0 101 8.66699 141 26s73.167 41.333 99.5 72s46 67.167 59 109.5s19.5 88.166 19.5 137.499s-6.5 95.166 -19.5 137.499s-32.667 78.833 -59 109.5s-59.5 54.667 -99.5 72s-87 26 -141 26s-101 -8.66699 -141 -26s-73.167 -41.333 -99.5 -72
s-46 -67.167 -59 -109.5s-19.5 -88.166 -19.5 -137.499s6.5 -95.166 19.5 -137.499s32.667 -78.833 59 -109.5s59.5 -54.667 99.5 -72s87 -26 141 -26zM349 112c-30.667 0 -56.834 5.33301 -78.501 16s-39.5 25.834 -53.5 45.501s-24.333 43 -31 70s-10 56.833 -10 89.5
s3.33301 62.5 10 89.5s17 50.167 31 69.5s31.833 34.5 53.5 45.5s47.834 16.5 78.501 16.5s56.834 -5.5 78.501 -16.5s39.5 -26.167 53.5 -45.5s24.333 -42.5 31 -69.5s10 -56.833 10 -89.5s-3.33301 -62.5 -10 -89.5s-17 -50.333 -31 -70s-31.833 -34.834 -53.5 -45.501
s-47.834 -16 -78.501 -16zM-130 515h130l82 152h-182z" />
    <glyph glyph-name="Upsilontonos" unicode="&#x38e;" 
d="M209 0h146v259l212 407h-154l-131 -278l-131 278h-154l212 -407v-259zM-236 515h130l82 152h-182z" />
    <glyph glyph-name="Omegatonos" unicode="&#x38f;" horiz-adv-x="749" 
d="M671 374c0 46 -7.1709 87.833 -21.5039 125.5s-35.166 69.667 -62.499 96s-60.666 46.666 -99.999 60.999s-84 21.5 -134 21.5s-94.667 -7.16699 -134 -21.5s-72.666 -34.666 -99.999 -60.999s-48.166 -58.333 -62.499 -96s-21.5 -79.5 -21.5 -125.5
c0 -28.667 2.5 -55 7.5 -79s12.167 -46.667 21.5 -68s20.5 -41.333 33.5 -60s27.167 -36.667 42.5 -54h-96v-113h249v113c-16 13.333 -31 28.666 -45 45.999s-26.167 36.5 -36.5 57.5s-18.666 43.667 -24.999 68s-9.5 50.166 -9.5 77.499c0 30 3.33301 57.333 10 82
s17.167 46 31.5 64s32.666 32 54.999 42s48.833 15 79.5 15s57.167 -5 79.5 -15s40.666 -24 54.999 -42s24.833 -39.333 31.5 -64s10 -52 10 -82c0 -27.333 -3.16699 -53.166 -9.5 -77.499s-14.666 -47 -24.999 -68s-22.5 -40.167 -36.5 -57.5s-29 -32.666 -45 -45.999v-113
h249v113h-96c15.333 17.333 29.5 35.333 42.5 54s24.167 38.667 33.5 60s16.5 44 21.5 68s7.5 50.333 7.5 79zM-113.004 515h130l82 152h-182z" />
    <glyph glyph-name="iotadieresistonos" unicode="&#x390;" horiz-adv-x="323" 
d="M55 129c0 -92.667 46.6689 -139 140.002 -139c25.333 0 46.166 0.833008 62.499 2.5s31.5 4.5 45.5 8.5c-0.666992 18 -1.33398 35 -2.00098 51c-0.666992 13.333 -1 26 -1 38v23c-9.33301 -1.33301 -19.166 -2.5 -29.499 -3.5s-18.833 -1.5 -25.5 -1.5
c-16.667 0 -27.834 2.83301 -33.501 8.5s-8.5 16.5 -8.5 32.5v339h-148v-359zM-1.99805 554c20.667 0 36.5 6 47.5 18s16.5 26.667 16.5 44s-5.5 32 -16.5 44s-26.833 18 -47.5 18c-20 0 -35.5 -6 -46.5 -18s-16.5 -26.667 -16.5 -44s5.5 -32 16.5 -44s26.5 -18 46.5 -18z
M81.002 548h87l75 173h-136zM297.002 554c20 0 35.5 6 46.5 18s16.5 26.667 16.5 44s-5.5 32 -16.5 44s-26.5 18 -46.5 18c-20.667 0 -36.5 -6 -47.5 -18s-16.5 -26.667 -16.5 -44s5.5 -32 16.5 -44s26.833 -18 47.5 -18z" />
    <glyph glyph-name="Alpha" unicode="&#x391;" horiz-adv-x="656" 
d="M5 0h148l48 147h254l48 -147h148l-242 666h-162zM241 269l87 266l87 -266h-174z" />
    <glyph glyph-name="Beta" unicode="&#x392;" horiz-adv-x="618" 
d="M65 0l309 0.000976562c32.667 0 62.167 4.5 88.5 13.5s48.833 21.5 67.5 37.5s33 35.167 43 57.5s15 47.166 15 74.499c0 45.333 -12.833 80.833 -38.5 106.5s-59.167 42.834 -100.5 51.501c40 14 69.5 35.167 88.5 63.5s28.5 61.166 28.5 98.499
c0 50.667 -16.833 90.5 -50.5 119.5s-81.5 43.5 -143.5 43.5h-307v-666zM209 391.001v160.999h121c31.333 0 54.5 -6.66699 69.5 -20s22.5 -31.666 22.5 -54.999c0 -22.667 -7 -42.667 -21 -60s-36.667 -26 -68 -26h-124zM209 114l0.000976562 162.999h138
c31.333 0 55.333 -7 72 -21s25 -33.333 25 -58c0 -25.333 -7.33301 -45.666 -22 -60.999s-37.334 -23 -68.001 -23h-145z" />
    <glyph glyph-name="Gamma" unicode="&#x393;" horiz-adv-x="531" 
d="M65 0h146v540h298v126h-444v-666z" />
    <glyph glyph-name="uni0394" unicode="&#x394;" horiz-adv-x="648" 
d="M12 0h624v51l-236 615h-152l-236 -615v-51zM186 125l136 407l136 -407h-272z" />
    <glyph glyph-name="Epsilon" unicode="&#x395;" horiz-adv-x="568" 
d="M65 0h458v126h-312v152h292v126h-292v136h312v126h-458v-666z" />
    <glyph glyph-name="Zeta" unicode="&#x396;" horiz-adv-x="582" 
d="M45 0h497v126h-326l316 410v130h-478v-126h307l-316 -410v-130z" />
    <glyph glyph-name="Eta" unicode="&#x397;" horiz-adv-x="688" 
d="M65 0h146v271h266v-271h146v666h-146v-265h-266v265h-146v-666z" />
    <glyph glyph-name="Theta" unicode="&#x398;" horiz-adv-x="698" 
d="M349 -12c54 0 101 8.66699 141 26s73.167 41.333 99.5 72s46 67.167 59 109.5s19.5 88.166 19.5 137.499s-6.5 95.166 -19.5 137.499s-32.667 78.833 -59 109.5s-59.5 54.667 -99.5 72s-87 26 -141 26s-101 -8.66699 -141 -26s-73.167 -41.333 -99.5 -72
s-46 -67.167 -59 -109.5s-19.5 -88.166 -19.5 -137.499s6.5 -95.166 19.5 -137.499s32.667 -78.833 59 -109.5s59.5 -54.667 99.5 -72s87 -26 141 -26zM349 112c-30.667 0 -56.834 5.33301 -78.501 16s-39.5 25.834 -53.5 45.501s-24.333 43 -31 70s-10 56.833 -10 89.5
s3.33301 62.5 10 89.5s17 50.167 31 69.5s31.833 34.5 53.5 45.5s47.834 16.5 78.501 16.5s56.834 -5.5 78.501 -16.5s39.5 -26.167 53.5 -45.5s24.333 -42.5 31 -69.5s10 -56.833 10 -89.5s-3.33301 -62.5 -10 -89.5s-17 -50.333 -31 -70s-31.833 -34.834 -53.5 -45.501
s-47.834 -16 -78.501 -16zM233 289h230v102h-230v-102z" />
    <glyph glyph-name="Iota" unicode="&#x399;" horiz-adv-x="286" 
d="M70 0h146v666h-146v-666z" />
    <glyph glyph-name="Kappa" unicode="&#x39a;" horiz-adv-x="641" 
d="M65 0h146v311l233 -311h187l-270 341l266 325h-187l-229 -297v297h-146v-666z" />
    <glyph glyph-name="Lambda" unicode="&#x39b;" horiz-adv-x="621" 
d="M0 0h150l158 535l161 -535h152l-227 666h-168z" />
    <glyph glyph-name="Mu" unicode="&#x39c;" horiz-adv-x="838" 
d="M65 0h141v380l142 -296h142l142 296v-380h141v666h-146l-208 -439l-208 439h-146v-666z" />
    <glyph glyph-name="Nu" unicode="&#x39d;" horiz-adv-x="714" 
d="M65 0h142v424l297 -424h145v666h-142v-424l-297 424h-145v-666z" />
    <glyph glyph-name="Xi" unicode="&#x39e;" horiz-adv-x="581" 
d="M45 0h490v131h-490v-131zM107 275h367v126h-367v-126zM45 536h491v130h-491v-130z" />
    <glyph glyph-name="Omicron" unicode="&#x39f;" horiz-adv-x="698" 
d="M349 -12c54 0 101 8.66699 141 26s73.167 41.333 99.5 72s46 67.167 59 109.5s19.5 88.166 19.5 137.499s-6.5 95.166 -19.5 137.499s-32.667 78.833 -59 109.5s-59.5 54.667 -99.5 72s-87 26 -141 26s-101 -8.66699 -141 -26s-73.167 -41.333 -99.5 -72
s-46 -67.167 -59 -109.5s-19.5 -88.166 -19.5 -137.499s6.5 -95.166 19.5 -137.499s32.667 -78.833 59 -109.5s59.5 -54.667 99.5 -72s87 -26 141 -26zM349 112c-30.667 0 -56.834 5.33301 -78.501 16s-39.5 25.834 -53.5 45.501s-24.333 43 -31 70s-10 56.833 -10 89.5
s3.33301 62.5 10 89.5s17 50.167 31 69.5s31.833 34.5 53.5 45.5s47.834 16.5 78.501 16.5s56.834 -5.5 78.501 -16.5s39.5 -26.167 53.5 -45.5s24.333 -42.5 31 -69.5s10 -56.833 10 -89.5s-3.33301 -62.5 -10 -89.5s-17 -50.333 -31 -70s-31.833 -34.834 -53.5 -45.501
s-47.834 -16 -78.501 -16z" />
    <glyph glyph-name="Pi" unicode="&#x3a0;" horiz-adv-x="681" 
d="M65 0h146v541h259v-541h146v666h-551v-666z" />
    <glyph glyph-name="Rho" unicode="&#x3a1;" horiz-adv-x="609" 
d="M65 0l146 -0.00195312v230h155c33.333 0 63.833 5.66699 91.5 17s51.334 26.833 71.001 46.5s35 42.834 46 69.501s16.5 55.334 16.5 86.001c0 31.333 -5.33301 60.333 -16 87s-25.667 49.667 -45 69s-42.833 34.333 -70.5 45s-58.834 16 -93.501 16h-301v-666z
M211 346.998l-0.000976562 202.001h135c28.667 0 52.334 -8.5 71.001 -25.5s28 -41.833 28 -74.5s-9 -57.834 -27 -75.501s-42 -26.5 -72 -26.5h-135z" />
    <glyph glyph-name="Sigma" unicode="&#x3a3;" horiz-adv-x="618" 
d="M35 0h538v126h-339l167 219l-144 195h299v126h-505v-97l180 -243l-196 -245v-81z" />
    <glyph glyph-name="Tau" unicode="&#x3a4;" horiz-adv-x="562" 
d="M208 0h146v540h186v126h-518v-126h186v-540z" />
    <glyph glyph-name="Upsilon" unicode="&#x3a5;" 
d="M209 0h146v259l212 407h-154l-131 -278l-131 278h-154l212 -407v-259z" />
    <glyph glyph-name="Phi" unicode="&#x3a6;" horiz-adv-x="803" 
d="M329 0h146v64c48.667 2.66699 91.5 11.334 128.5 26.001s68 34 93 58s44 51.833 57 83.5s19.5 66.5 19.5 104.5s-6.5 72.833 -19.5 104.5s-32 59.5 -57 83.5s-56 43.5 -93 58.5s-79.833 24.5 -128.5 28.5v60h-146v-60c-48.667 -4 -91.5 -13.5 -128.5 -28.5
s-68.167 -34.5 -93.5 -58.5s-44.5 -51.833 -57.5 -83.5s-19.5 -66.5 -19.5 -104.5s6.5 -72.833 19.5 -104.5s32.167 -59.5 57.5 -83.5s56.5 -43.333 93.5 -58s79.833 -23.334 128.5 -26.001v-64zM329 184c-48.667 3.33301 -86.999 17.168 -114.999 41.501
s-42 61.166 -42 110.499c0 20 3.33301 39 10 57s16.667 34 30 48s29.666 25.333 48.999 34s42 13.667 68 15v-306zM475.001 184.002l0.000976562 305.998c26 -1.33301 48.667 -6.33301 68 -15s35.5 -20 48.5 -34s22.833 -30 29.5 -48s10 -37 10 -57
c0 -49.333 -13.833 -86.166 -41.5 -110.499s-65.834 -38.166 -114.501 -41.499z" />
    <glyph glyph-name="Chi" unicode="&#x3a7;" horiz-adv-x="596" 
d="M5 0h159l134 220l134 -220h159l-214 339l206 327h-159l-126 -207l-126 207h-159l205 -327z" />
    <glyph glyph-name="Psi" unicode="&#x3a8;" horiz-adv-x="827" 
d="M341 0h146v113c98.667 5.33301 169.5 31.333 212.5 78s64.5 115.667 64.5 207v268h-145v-243c0 -36 -2.66699 -66 -8 -90s-13.5 -43.5 -24.5 -58.5s-24.833 -26.167 -41.5 -33.5s-36 -12 -58 -14v439h-146v-438c-22 2 -41.167 6.66699 -57.5 14s-29.833 18.5 -40.5 33.5
s-18.5 34.5 -23.5 58.5s-7.5 53.667 -7.5 89v243h-146v-268c0 -90 21.333 -158.5 64 -205.5s113 -73.5 211 -79.5v-113z" />
    <glyph glyph-name="uni03A9" unicode="&#x3a9;" horiz-adv-x="706" 
d="M671 374c0 46 -7.1709 87.833 -21.5039 125.5s-35.166 69.667 -62.499 96s-60.666 46.666 -99.999 60.999s-84 21.5 -134 21.5s-94.667 -7.16699 -134 -21.5s-72.666 -34.666 -99.999 -60.999s-48.166 -58.333 -62.499 -96s-21.5 -79.5 -21.5 -125.5
c0 -28.667 2.5 -55 7.5 -79s12.167 -46.667 21.5 -68s20.5 -41.333 33.5 -60s27.167 -36.667 42.5 -54h-96v-113h249v113c-16 13.333 -31 28.666 -45 45.999s-26.167 36.5 -36.5 57.5s-18.666 43.667 -24.999 68s-9.5 50.166 -9.5 77.499c0 30 3.33301 57.333 10 82
s17.167 46 31.5 64s32.666 32 54.999 42s48.833 15 79.5 15s57.167 -5 79.5 -15s40.666 -24 54.999 -42s24.833 -39.333 31.5 -64s10 -52 10 -82c0 -27.333 -3.16699 -53.166 -9.5 -77.499s-14.666 -47 -24.999 -68s-22.5 -40.167 -36.5 -57.5s-29 -32.666 -45 -45.999v-113
h249v113h-96c15.333 17.333 29.5 35.333 42.5 54s24.167 38.667 33.5 60s16.5 44 21.5 68s7.5 50.333 7.5 79z" />
    <glyph glyph-name="Iotadieresis" unicode="&#x3aa;" horiz-adv-x="286" 
d="M70 0h146v666h-146v-666zM176 793c0 -20 6 -36.167 18 -48.5s29.667 -18.5 53 -18.5s41 6.16699 53 18.5s18 28.5 18 48.5s-6 36.167 -18 48.5s-29.667 18.5 -53 18.5s-41 -6.16699 -53 -18.5s-18 -28.5 -18 -48.5zM-31 793c0 -20 6 -36.167 18 -48.5
s29.667 -18.5 53 -18.5s41 6.16699 53 18.5s18 28.5 18 48.5s-6 36.167 -18 48.5s-29.667 18.5 -53 18.5s-41 -6.16699 -53 -18.5s-18 -28.5 -18 -48.5z" />
    <glyph glyph-name="Upsilondieresis" unicode="&#x3ab;" 
d="M209 0h146v259l212 407h-154l-131 -278l-131 278h-154l212 -407v-259zM315 793c0 -20 6 -36.167 18 -48.5s29.667 -18.5 53 -18.5s41 6.16699 53 18.5s18 28.5 18 48.5s-6 36.167 -18 48.5s-29.667 18.5 -53 18.5s-41 -6.16699 -53 -18.5s-18 -28.5 -18 -48.5zM108 793
c0 -20 6 -36.167 18 -48.5s29.667 -18.5 53 -18.5s41 6.16699 53 18.5s18 28.5 18 48.5s-6 36.167 -18 48.5s-29.667 18.5 -53 18.5s-41 -6.16699 -53 -18.5s-18 -28.5 -18 -48.5z" />
    <glyph glyph-name="alphatonos" unicode="&#x3ac;" horiz-adv-x="601" 
d="M223 -10c28.667 0 54.9971 5.33301 78.9971 16s47.667 33 71 67c6 -18 13.5 -32.5 22.5 -43.5s19.333 -19.333 31 -25s24.5 -9.5 38.5 -11.5s29.333 -3 46 -3c11.333 0 23 1.16699 35 3.5s23.667 4.83301 35 7.5l-5 109c-4.66699 -0.666992 -9 -1.16699 -13 -1.5
s-7.33301 -0.5 -10 -0.5c-23.333 0 -39.166 7.83301 -47.499 23.5s-12.5 38.834 -12.5 69.501c0 45.333 5.83301 90.5 17.5 135.5s25.5 86.167 41.5 123.5l-135 38c-6 -8.66699 -11.833 -20 -17.5 -34s-10.834 -28.667 -15.501 -44c-8 10 -16.5 19.667 -25.5 29
s-19.167 17.666 -30.5 24.999s-24.5 13.166 -39.5 17.499s-31.833 6.5 -50.5 6.5c-36 0 -67.167 -7 -93.5 -21s-48.166 -32.833 -65.499 -56.5s-30.166 -51.167 -38.499 -82.5s-12.5 -64.666 -12.5 -99.999c0 -76.667 16.833 -137.167 50.5 -181.5
s81.834 -66.5 144.501 -66.5zM263.997 108c-31.333 0 -53.665 12.002 -66.998 36.002s-20 58 -20 102c0 43.333 8.16699 76.5 24.5 99.5s37.166 34.5 62.499 34.5c12 0 23.5 -2.16699 34.5 -6.5s20.667 -11.333 29 -21s15.166 -22.334 20.499 -38.001s8 -34.834 8 -57.501
c0 -48.667 -8.83301 -85.667 -26.5 -111s-39.5 -38 -65.5 -38zM202.998 548.002h130l82 152h-182z" />
    <glyph glyph-name="epsilontonos" unicode="&#x3ad;" horiz-adv-x="471" 
d="M229 -10c39.333 0 75.6641 3.00488 108.997 9.00488s69 17 107 33l-21 106c-25.333 -7.33301 -52.5 -14 -81.5 -20s-58.5 -9 -88.5 -9c-50.667 0 -76 13.667 -76 41c0 15.333 5.83301 26 17.5 32s30.834 9 57.501 9h80v111h-71c-27.333 0 -45.333 4 -54 12
s-13 16.667 -13 26c0 15.333 5.83301 26.333 17.5 33s28.167 10 49.5 10c25.333 0 49 -2.5 71 -7.5s46 -12.833 72 -23.5l25 112c-22 10.667 -48.667 19 -80 25s-65.666 9 -102.999 9c-32 0 -60.5 -3.5 -85.5 -10.5s-46 -16.833 -63 -29.5s-30 -27.334 -39 -44.001
s-13.5 -35 -13.5 -55c0 -26.667 6.66699 -47.834 20 -63.501s34 -29.5 62 -41.5c-18.667 -5.33301 -34.167 -12.833 -46.5 -22.5s-22.333 -20.334 -30 -32.001s-13.167 -23.834 -16.5 -36.501s-5 -24.667 -5 -36c0 -28.667 5.83301 -51.834 17.5 -69.501
s26.834 -31.5 45.501 -41.5s40 -16.833 64 -20.5s48 -5.5 72 -5.5zM183.998 548.005h130l82 152h-182z" />
    <glyph glyph-name="etatonos" unicode="&#x3ae;" horiz-adv-x="589" 
d="M81 0l148.998 0.000976562v273c0 20.667 2.66699 37.667 8 51s12.333 23.833 21 31.5s18.334 13 29.001 16s21.667 4.5 33 4.5c18 0 33.333 -5 46 -15s19 -29 19 -57v-482h148v508c0 32.667 -4 59.834 -12 81.501s-19.333 39 -34 52s-32.5 22 -53.5 27
s-44.167 7.5 -69.5 7.5c-24 0 -50.5 -7.16699 -79.5 -21.5s-56.5 -40.833 -82.5 -79.5c-5.33301 23.333 -16.166 44.833 -32.499 64.5s-38.5 32.167 -66.5 37.5l-84 -97c12.667 -8 23 -15.333 31 -22s14.333 -15.334 19 -26.001s7.66699 -23.834 9 -39.501s2 -36.5 2 -62.5
v-252zM215.998 548.001h130l82 152h-182z" />
    <glyph glyph-name="iotatonos" unicode="&#x3af;" horiz-adv-x="323" 
d="M55 129c0 -92.667 46.6689 -139 140.002 -139c25.333 0 46.166 0.833008 62.499 2.5s31.5 4.5 45.5 8.5c-0.666992 18 -1.33398 35 -2.00098 51c-0.666992 13.333 -1 26 -1 38v23c-9.33301 -1.33301 -19.166 -2.5 -29.499 -3.5s-18.833 -1.5 -25.5 -1.5
c-16.667 0 -27.834 2.83301 -33.501 8.5s-8.5 16.5 -8.5 32.5v339h-148v-359zM61.002 548h130l82 152h-182z" />
    <glyph glyph-name="upsilondieresistonos" unicode="&#x3b0;" horiz-adv-x="541" 
d="M56 208c0 -44 6.16406 -80.166 18.4971 -108.499s28.833 -50.5 49.5 -66.5s44.5 -27.167 71.5 -33.5s55.5 -9.5 85.5 -9.5c50.667 0 91.334 9.16699 122.001 27.5s54.167 41 70.5 68s27 56.167 32 87.5s7.5 59.666 7.5 84.999c0 10.667 -0.333008 24.334 -1 41.001
s-2.16699 35.5 -4.5 56.5s-6.33301 43.667 -12 68s-13.5 49.166 -23.5 74.499l-141 -39c14.667 -36.667 24.334 -74.167 29.001 -112.5s7 -72.5 7 -102.5c0 -25.333 -2 -46.166 -6 -62.499s-9.66699 -29.166 -17 -38.499s-16.333 -16 -27 -20s-22.667 -6 -36 -6
c-28 0 -48.333 8.83301 -61 26.5s-19 43.5 -19 77.5v40c0 29.333 -0.333008 55.666 -1 78.999s-2.16699 44.333 -4.5 63s-5.66602 35.667 -9.99902 51s-10.5 30 -18.5 44l-143 -39c9.33301 -18.667 17 -45.834 23 -81.501s9 -84.5 9 -146.5v-23zM122.997 554.001
c20.667 0 36.5 6 47.5 18s16.5 26.667 16.5 44s-5.5 32 -16.5 44s-26.833 18 -47.5 18c-20 0 -35.5 -6 -46.5 -18s-16.5 -26.667 -16.5 -44s5.5 -32 16.5 -44s26.5 -18 46.5 -18zM205.997 548.001h87l75 173h-136zM421.997 554.001c20 0 35.5 6 46.5 18s16.5 26.667 16.5 44
s-5.5 32 -16.5 44s-26.5 18 -46.5 18c-20.667 0 -36.5 -6 -47.5 -18s-16.5 -26.667 -16.5 -44s5.5 -32 16.5 -44s26.833 -18 47.5 -18z" />
    <glyph glyph-name="alpha" unicode="&#x3b1;" horiz-adv-x="601" 
d="M223 -10c28.667 0 54.9971 5.33301 78.9971 16s47.667 33 71 67c6 -18 13.5 -32.5 22.5 -43.5s19.333 -19.333 31 -25s24.5 -9.5 38.5 -11.5s29.333 -3 46 -3c11.333 0 23 1.16699 35 3.5s23.667 4.83301 35 7.5l-5 109c-4.66699 -0.666992 -9 -1.16699 -13 -1.5
s-7.33301 -0.5 -10 -0.5c-23.333 0 -39.166 7.83301 -47.499 23.5s-12.5 38.834 -12.5 69.501c0 45.333 5.83301 90.5 17.5 135.5s25.5 86.167 41.5 123.5l-135 38c-6 -8.66699 -11.833 -20 -17.5 -34s-10.834 -28.667 -15.501 -44c-8 10 -16.5 19.667 -25.5 29
s-19.167 17.666 -30.5 24.999s-24.5 13.166 -39.5 17.499s-31.833 6.5 -50.5 6.5c-36 0 -67.167 -7 -93.5 -21s-48.166 -32.833 -65.499 -56.5s-30.166 -51.167 -38.499 -82.5s-12.5 -64.666 -12.5 -99.999c0 -76.667 16.833 -137.167 50.5 -181.5
s81.834 -66.5 144.501 -66.5zM263.997 108c-31.333 0 -53.665 12.002 -66.998 36.002s-20 58 -20 102c0 43.333 8.16699 76.5 24.5 99.5s37.166 34.5 62.499 34.5c12 0 23.5 -2.16699 34.5 -6.5s20.667 -11.333 29 -21s15.166 -22.334 20.499 -38.001s8 -34.834 8 -57.501
c0 -48.667 -8.83301 -85.667 -26.5 -111s-39.5 -38 -65.5 -38z" />
    <glyph glyph-name="beta" unicode="&#x3b2;" horiz-adv-x="583" 
d="M60 -178l147.998 -0.00195312v219c15.333 -16.667 33.5 -29.334 54.5 -38.001s47.5 -13 79.5 -13c41.333 0 75.5 7.5 102.5 22.5s48.333 33.167 64 54.5s26.667 43.666 33 66.999s9.5 43 9.5 59c0 18.667 -1.66699 36.5 -5 53.5s-9.16602 33 -17.499 48
s-20 28.833 -35 41.5s-34.5 24 -58.5 34c10.667 10.667 20 20.834 28 30.501s14.833 19.834 20.5 30.501s9.83398 22.167 12.501 34.5s4 26.5 4 42.5c0 16.667 -2.83301 34.834 -8.5 54.501s-16 37.834 -31 54.501s-35.667 30.667 -62 42s-60.5 17 -102.5 17
c-28 0 -56 -4.33301 -84 -13s-53.333 -23 -76 -43s-41 -46.667 -55 -80s-21 -75 -21 -125v-593zM310.998 107.998c-38 0 -64.666 10.002 -79.999 30.002s-23 45.667 -23 77v224c0 40 8 69.833 24 89.5s37.667 29.5 65 29.5c21.333 0 39 -6.5 53 -19.5s21 -33.833 21 -62.5
c0 -20.667 -5.33301 -38.167 -16 -52.5s-26.667 -21.5 -48 -21.5h-35v-109h40c30 0 51.667 -8.83301 65 -26.5s20 -40.5 20 -68.5c0 -10 -1.33301 -20.333 -4 -31s-7.33398 -20.334 -14.001 -29.001s-15.5 -15.834 -26.5 -21.501s-24.833 -8.5 -41.5 -8.5z" />
    <glyph glyph-name="gamma" unicode="&#x3b3;" horiz-adv-x="588" 
d="M242 -178l147.999 -0.00195312v183l191 483h-146l-116 -341l-84 251c-6.66699 19.333 -13.667 35.333 -21 48s-15.833 22.834 -25.5 30.501s-21.167 13.167 -34.5 16.5s-29 5 -47 5c-15.333 0 -30.666 -1.33301 -45.999 -4s-29.666 -5.66699 -42.999 -9v-22
c0 -11.333 0.333008 -23.666 1 -36.999c0.666992 -15.333 1.33398 -32.333 2.00098 -51c7.33301 2 13.166 3.33301 17.499 4s8.16602 1 11.499 1c15.333 0 26.833 -5 34.5 -15s17.167 -28.333 28.5 -55l129 -307v-181z" />
    <glyph glyph-name="delta" unicode="&#x3b4;" horiz-adv-x="525" 
d="M253 -10c42 0 78.335 6.83008 109.002 20.4971s56 31.667 76 54s34.833 47.666 44.5 75.999s14.5 56.833 14.5 85.5c0 27.333 -3.5 52.333 -10.5 75s-17.667 44.167 -32 64.5s-32.5 40 -54.5 59s-47.667 38.5 -77 58.5l-36.5 24.5c-9 6.33301 -15.833 11.5 -20.5 15.5
s-7.66699 7.33301 -9 10s-2 5.66699 -2 9c0 13.333 10 20 30 20c10.667 0 22.5 -1.16699 35.5 -3.5s26.333 -5.16602 40 -8.49902s27.167 -7.16602 40.5 -11.499s26 -8.83301 38 -13.5l23 110c-20 11.333 -47.333 21 -82 29s-71.334 12 -110.001 12
c-27.333 0 -51.333 -3.33301 -72 -10s-38 -15.667 -52 -27s-24.667 -24.5 -32 -39.5s-11 -30.833 -11 -47.5c0 -10 0.833008 -19.833 2.5 -29.5s5.16699 -19.167 10.5 -28.5s12.833 -18.666 22.5 -27.999s22.5 -19 38.5 -29c-20 -7.33301 -39.167 -17.833 -57.5 -31.5
s-34.166 -29.667 -47.499 -48s-24 -38.666 -32 -60.999s-12 -46.5 -12 -72.5c0 -45.333 7.16699 -83 21.5 -113s32.666 -54 54.999 -72s46.666 -30.667 72.999 -38s51.5 -11 75.5 -11zM265.002 107.997c-30 0 -52.501 11.001 -67.501 33.001s-22.5 49.667 -22.5 83
c0 38 7.5 69.333 22.5 94s35.833 44 62.5 58c30.667 -15.333 53.834 -36.333 69.501 -63s23.5 -55.334 23.5 -86.001c0 -38 -8.33301 -67.333 -25 -88s-37.667 -31 -63 -31z" />
    <glyph glyph-name="epsilon" unicode="&#x3b5;" horiz-adv-x="471" 
d="M229 -10c39.333 0 75.6641 3.00488 108.997 9.00488s69 17 107 33l-21 106c-25.333 -7.33301 -52.5 -14 -81.5 -20s-58.5 -9 -88.5 -9c-50.667 0 -76 13.667 -76 41c0 15.333 5.83301 26 17.5 32s30.834 9 57.501 9h80v111h-71c-27.333 0 -45.333 4 -54 12
s-13 16.667 -13 26c0 15.333 5.83301 26.333 17.5 33s28.167 10 49.5 10c25.333 0 49 -2.5 71 -7.5s46 -12.833 72 -23.5l25 112c-22 10.667 -48.667 19 -80 25s-65.666 9 -102.999 9c-32 0 -60.5 -3.5 -85.5 -10.5s-46 -16.833 -63 -29.5s-30 -27.334 -39 -44.001
s-13.5 -35 -13.5 -55c0 -26.667 6.66699 -47.834 20 -63.501s34 -29.5 62 -41.5c-18.667 -5.33301 -34.167 -12.833 -46.5 -22.5s-22.333 -20.334 -30 -32.001s-13.167 -23.834 -16.5 -36.501s-5 -24.667 -5 -36c0 -28.667 5.83301 -51.834 17.5 -69.501
s26.834 -31.5 45.501 -41.5s40 -16.833 64 -20.5s48 -5.5 72 -5.5z" />
    <glyph glyph-name="zeta" unicode="&#x3b6;" horiz-adv-x="430" 
d="M286 -186c24 12.667 44.6699 27.002 62.0029 43.002s31.666 32.167 42.999 48.5s19.666 32.166 24.999 47.499s8 29 8 41c0 14.667 -2 27.5 -6 38.5s-10.5 21 -19.5 30s-20.833 17.5 -35.5 25.5s-33 16.333 -55 25c-22.667 8.66699 -42.334 17.5 -59.001 26.5
s-30.5 18.5 -41.5 28.5s-19.333 21.333 -25 34s-8.5 27.667 -8.5 45c0 24.667 4.5 49.5 13.5 74.5s23.167 50.5 42.5 76.5s44.166 52.833 74.499 80.5s67.166 56.834 110.499 87.501v100h-353v-120h174c-30 -21.333 -57.667 -44.5 -83 -69.5s-47.333 -51.167 -66 -78.5
s-33.167 -56 -43.5 -86s-15.5 -60.667 -15.5 -92c0 -25.333 3.33301 -48.5 10 -69.5s17.834 -40.333 33.501 -58s36.5 -34.167 62.5 -49.5s58.667 -30 98 -44c22.667 -8.66699 37.834 -15.334 45.501 -20.001s11.5 -12.334 11.5 -23.001
c0 -15.333 -5.16699 -28.833 -15.5 -40.5s-24.5 -25.5 -42.5 -41.5z" />
    <glyph glyph-name="eta" unicode="&#x3b7;" horiz-adv-x="589" 
d="M81 0l148.998 0.000976562v273c0 20.667 2.66699 37.667 8 51s12.333 23.833 21 31.5s18.334 13 29.001 16s21.667 4.5 33 4.5c18 0 33.333 -5 46 -15s19 -29 19 -57v-482h148v508c0 32.667 -4 59.834 -12 81.501s-19.333 39 -34 52s-32.5 22 -53.5 27
s-44.167 7.5 -69.5 7.5c-24 0 -50.5 -7.16699 -79.5 -21.5s-56.5 -40.833 -82.5 -79.5c-5.33301 23.333 -16.166 44.833 -32.499 64.5s-38.5 32.167 -66.5 37.5l-84 -97c12.667 -8 23 -15.333 31 -22s14.333 -15.334 19 -26.001s7.66699 -23.834 9 -39.501s2 -36.5 2 -62.5
v-252z" />
    <glyph glyph-name="theta" unicode="&#x3b8;" horiz-adv-x="552" 
d="M276 -10c42 0 78.333 8.33301 109 25s56 39.667 76 69s34.833 64.5 44.5 105.5s14.5 85.833 14.5 134.5c0 114 -20.167 200.667 -60.5 260s-101.5 89 -183.5 89c-82.667 0 -144 -30 -184 -90s-60 -146.333 -60 -259c0 -48.667 4.5 -93.5 13.5 -134.5
s23.333 -76.167 43 -105.5s45 -52.333 76 -69s68.167 -25 111.5 -25zM276 108c-20 0 -36.333 5 -49 15s-22.667 23 -30 39s-12.5 34.167 -15.5 54.5s-4.83301 41.166 -5.5 62.499h198c-0.666992 -21.333 -2.5 -42.166 -5.5 -62.499s-8 -38.5 -15 -54.5
s-16.833 -29 -29.5 -39s-28.667 -15 -48 -15zM176 385c2 54 10.5 95.499 25.5 124.499s39.833 43.5 74.5 43.5c34 0 58.333 -14.167 73 -42.5s23 -70.166 25 -125.499h-198z" />
    <glyph glyph-name="iota" unicode="&#x3b9;" horiz-adv-x="323" 
d="M55 129c0 -92.667 46.6689 -139 140.002 -139c25.333 0 46.166 0.833008 62.499 2.5s31.5 4.5 45.5 8.5c-0.666992 18 -1.33398 35 -2.00098 51c-0.666992 13.333 -1 26 -1 38v23c-9.33301 -1.33301 -19.166 -2.5 -29.499 -3.5s-18.833 -1.5 -25.5 -1.5
c-16.667 0 -27.834 2.83301 -33.501 8.5s-8.5 16.5 -8.5 32.5v339h-148v-359z" />
    <glyph glyph-name="kappa" unicode="&#x3ba;" horiz-adv-x="562" 
d="M60 0l148 -0.000976562v84l63 84l124 -168h160l-207 268l41 50c10.667 13.333 20.167 23.833 28.5 31.5s16.166 13.5 23.499 17.5s14.5 6.66699 21.5 8s14.5 2 22.5 2c4.66699 0 10.334 -0.333008 17.001 -1s15.667 -1.66699 27 -3c0 18.667 0.333008 36.334 1 53.001
c0.666992 14 1.16699 27.5 1.5 40.5s0.5 21.5 0.5 25.5c-7.33301 2.66699 -14.5 4.33398 -21.5 5.00098s-16.167 1 -27.5 1c-22 0 -40.833 -2.16699 -56.5 -6.5s-30 -11 -43 -20s-25.5 -20.333 -37.5 -34s-25 -29.834 -39 -48.501l-99 -130v229h-148v-488z" />
    </font>
</defs>
</svg>
